请选择 进入手机版 | 继续访问电脑版
设为首页收藏本站
开启辅助访问
切换到宽版

ChinaFFmpeg

 找回密码
 立即注册

QQ登录

只需一步,快速开始

用新浪微博登录

只需一步,快速搞定

搜索
热搜: 活动 交友 discuz
查看: 301|回复: 0

[Windows] 帮忙看下这是什么错

[复制链接]
扫一扫,手机访问本帖
发表于 2019-3-13 18:49:39 | 显示全部楼层 |阅读模式
ffmpeg version N-90926-gbad42e9b40 Copyright (c) 2000-2018 the FFmpeg developers  built with gcc 7.3.0 (GCC)  configuration: --enable-gpl --enable-version3 --enable-sdl2 --enable-bzlib --enable-fontconfig --enable-gnutls --enable-iconv --enable-libass --enable-libbluray --enable-libfreetype --enable-libmp3lame --enable-libopencore-amrnb --enable-libopencore-amrwb --enable-libopenjpeg --enable-libopus --enable-libshine --enable-libsnappy --enable-libsoxr --enable-libtheora --enable-libtwolame --enable-libvpx --enable-libwavpack --enable-libwebp --enable-libx264 --enable-libx265 --enable-libxml2 --enable-libzimg --enable-lzma --enable-zlib --enable-gmp --enable-libvidstab --enable-libvorbis --enable-libvo-amrwbenc --enable-libmysofa --enable-libspeex --enable-libxvid --enable-libaom --enable-libmfx --enable-amf --enable-ffnvcodec --enable-cuvid --enable-d3d11va --enable-nvenc --enable-nvdec --enable-dxva2 --enable-avisynth  libavutil      56. 18.100 / 56. 18.100  libavcodec     58. 19.100 / 58. 19.100  libavformat    58. 13.100 / 58. 13.100  libavdevice    58.  4.100 / 58.  4.100  libavfilter     7. 21.100 /  7. 21.100  libswscale      5.  2.100 /  5.  2.100  libswresample   3.  2.100 /  3.  2.100  libpostproc    55.  2.100 / 55.  2.100Input #0, mov,mp4,m4a,3gp,3g2,mj2, from 'D:\WebUpload\ZiLiao\upload\temp\ae638f1288e84b02a5bb2abe18c7baef.mp4':  Metadata:    major_brand     : mp42    minor_version   : 1    compatible_brands: isommp423gp5    creation_time   : 2011-06-29T13:05:38.000000Z  Duration: 00:03:08.56, start: 0.000000, bitrate: 1411 kb/s    Stream #0:0(und): Video: mpeg4 (Simple Profile) (mp4v / 0x7634706D), yuv420p, 640x480 [SAR 1:1 DAR 4:3], 1283 kb/s, 23.98 fps, 23.98 tbr, 24k tbn, 2997 tbc (default)    Metadata:      creation_time   : 2011-06-29T13:05:38.000000Z      handler_name    : GPAC ISO Video Handler    Stream #0:1(und): Audio: aac (LC) (mp4a / 0x6134706D), 44100 Hz, stereo, fltp, 125 kb/s (default)    Metadata:      creation_time   : 2011-06-29T13:05:38.000000Z      handler_name    : GPAC ISO Audio Handler    Stream #0:2(und): Data: none (mp4s / 0x7334706D), 0 kb/s (default)    Metadata:      creation_time   : 2011-06-29T13:05:39.000000Z      handler_name    : GPAC MPEG-4 OD Handler    Stream #0:3(und): Data: none (mp4s / 0x7334706D), 0 kb/s (default)    Metadata:      creation_time   : 2011-06-29T13:05:39.000000Z      handler_name    : GPAC MPEG-4 Scene Description HandlerStream mapping:  Stream #0:0 -> #0:0 (mpeg4 (native) -> h264 (libx264))  Stream #0:1 -> #0:1 (aac (native) -> aac (native))Press [q] to stop, [?] for help[libx264 @ 00000000010f7cc0] using SAR=1/1[libx264 @ 00000000010f7cc0] using cpu capabilities: MMX2 SSE2Fast SSSE3 SSE4.2 AVX FMA3 BMI2 AVX2[libx264 @ 00000000010f7cc0] profile High, level 3.0[libx264 @ 00000000010f7cc0] 264 - core 155 r2901 7d0ff22 - H.264/MPEG-4 AVC codec - Copyleft 2003-2018 - http://www.videolan.org/x264.html - options: cabac=1 ref=3 deblock=1:0:0 analyse=0x3:0x113 me=hex subme=7 psy=1 psy_rd=1.00:0.00 mixed_ref=1 me_range=16 chroma_me=1 trellis=1 8x8dct=1 cqm=0 deadzone=21,11 fast_pskip=1 chroma_qp_offset=-2 threads=12 lookahead_threads=2 sliced_threads=0 nr=0 decimate=1 interlaced=0 bluray_compat=0 constrained_intra=0 bframes=3 b_pyramid=2 b_adapt=1 b_bias=0 direct=1 weightb=1 open_gop=0 weightp=2 keyint=250 keyint_min=23 scenecut=40 intra_refresh=0 rc_lookahead=40 rc=crf mbtree=1 crf=23.0 qcomp=0.60 qpmin=0 qpmax=69 qpstep=4 ip_ratio=1.40 aq=1:1.00Output #0, mp4, to 'D:\WebUpload\ZiLiao\upload\ae638f1288e84b02a5bb2abe18c7baef.mp4':  Metadata:    major_brand     : mp42    minor_version   : 1    compatible_brands: isommp423gp5    encoder         : Lavf58.13.100    Stream #0:0(und): Video: h264 (libx264) (avc1 / 0x31637661), yuv420p(progressive), 640x480 [SAR 1:1 DAR 4:3], q=-1--1, 23.98 fps, 24k tbn, 23.98 tbc (default)    Metadata:      creation_time   : 2011-06-29T13:05:38.000000Z      handler_name    : GPAC ISO Video Handler      encoder         : Lavc58.19.100 libx264    Side data:      cpb: bitrate max/min/avg: 0/0/0 buffer size: 0 vbv_delay: -1    Stream #0:1(und): Audio: aac (LC) (mp4a / 0x6134706D), 44100 Hz, stereo, fltp, 128 kb/s (default)    Metadata:      creation_time   : 2011-06-29T13:05:38.000000Z      handler_name    : GPAC ISO Audio Handler      encoder         : Lavc58.19.100 aacframe=  191 fps=0.0 q=28.0 size=       0kB time=00:00:08.33 bitrate=   0.0kbits/s speed=16.6x    frame=  346 fps=346 q=28.0 size=     512kB time=00:00:14.93 bitrate= 280.9kbits/s speed=14.9x    frame=  500 fps=333 q=28.0 size=     768kB time=00:00:21.33 bitrate= 294.8kbits/s speed=14.2x    frame=  621 fps=310 q=28.0 size=    1280kB time=00:00:26.61 bitrate= 394.1kbits/s speed=13.3x    frame=  753 fps=301 q=28.0 size=    1792kB time=00:00:31.71 bitrate= 462.8kbits/s speed=12.7x    frame=  886 fps=295 q=28.0 size=    2048kB time=00:00:37.68 bitrate= 445.2kbits/s speed=12.5x    frame= 1061 fps=303 q=28.0 size=    2560kB time=00:00:44.88 bitrate= 467.2kbits/s speed=12.8x    frame= 1258 fps=314 q=28.0 size=    3072kB time=00:00:52.82 bitrate= 476.4kbits/s speed=13.2x    frame= 1434 fps=318 q=28.0 size=    3584kB time=00:01:00.16 bitrate= 488.0kbits/s speed=13.3x    frame= 1610 fps=321 q=28.0 size=    4096kB time=00:01:07.52 bitrate= 496.9kbits/s speed=13.5x    frame= 1804 fps=327 q=28.0 size=    4608kB time=00:01:15.76 bitrate= 498.2kbits/s speed=13.7x    frame= 1974 fps=328 q=28.0 size=    4864kB time=00:01:22.70 bitrate= 481.8kbits/s speed=13.8x    frame= 2150 fps=330 q=28.0 size=    5376kB time=00:01:30.02 bitrate= 489.2kbits/s speed=13.8x    frame= 2282 fps=325 q=28.0 size=    5632kB time=00:01:35.73 bitrate= 481.9kbits/s speed=13.7x    frame= 2425 fps=323 q=28.0 size=    6144kB time=00:01:41.77 bitrate= 494.6kbits/s speed=13.5x    frame= 2568 fps=321 q=28.0 size=    6656kB time=00:01:47.74 bitrate= 506.1kbits/s speed=13.4x    frame= 2686 fps=316 q=28.0 size=    7168kB time=00:01:52.47 bitrate= 522.1kbits/s speed=13.2x    frame= 2788 fps=309 q=28.0 size=    7680kB time=00:01:56.74 bitrate= 538.9kbits/s speed=  13x    frame= 2986 fps=314 q=28.0 size=    8192kB time=00:02:05.22 bitrate= 535.9kbits/s speed=13.2x    frame= 3198 fps=319 q=28.0 size=    8704kB time=00:02:14.04 bitrate= 531.9kbits/s speed=13.4x    frame= 3371 fps=321 q=28.0 size=    9472kB time=00:02:21.08 bitrate= 550.0kbits/s speed=13.4x    frame= 3534 fps=321 q=28.0 size=   10240kB time=00:02:27.79 bitrate= 567.6kbits/s speed=13.4x    frame= 3699 fps=321 q=28.0 size=   11008kB time=00:02:34.69 bitrate= 583.0kbits/s speed=13.4x    frame= 3871 fps=322 q=28.0 size=   11776kB time=00:02:42.02 bitrate= 595.4kbits/s speed=13.5x    frame= 4031 fps=322 q=28.0 size=   12544kB time=00:02:48.71 bitrate= 609.1kbits/s speed=13.5x    frame= 4195 fps=322 q=28.0 size=   13312kB time=00:02:55.33 bitrate= 622.0kbits/s speed=13.5x    frame= 4357 fps=322 q=28.0 size=   14080kB time=00:03:02.20 bitrate= 633.0kbits/s speed=13.5x    frame= 4521 fps=321 q=-1.0 Lsize=   15051kB time=00:03:08.54 bitrate= 653.9kbits/s speed=13.4x    video:12402kB audio:2517kB subtitle:0kB other streams:0kB global headers:0kB muxing overhead: 0.885356%[libx264 @ 00000000010f7cc0] frame I:25    Avg QP:17.61  size: 19863[libx264 @ 00000000010f7cc0] frame P:2657  Avg QP:20.95  size:  3869[libx264 @ 00000000010f7cc0] frame B:1839  Avg QP:25.63  size:  1045[libx264 @ 00000000010f7cc0] consecutive B-frames: 37.4% 20.8% 12.5% 29.3%[libx264 @ 00000000010f7cc0] mb I  I16..4: 33.6% 60.5%  5.9%[libx264 @ 00000000010f7cc0] mb P  I16..4:  2.9%  5.5%  0.1%  P16..4: 35.8%  9.1%  5.3%  0.0%  0.0%    skip:41.4%[libx264 @ 00000000010f7cc0] mb B  I16..4:  0.6%  1.6%  0.0%  B16..8: 33.5%  2.3%  0.3%  direct: 1.1%  skip:60.8%  L0:50.3% L1:42.8% BI: 6.9%[libx264 @ 00000000010f7cc0] 8x8 transform intra:65.5% inter:81.2%[libx264 @ 00000000010f7cc0] coded y,uvDC,uvAC intra: 31.3% 55.0% 9.7% inter: 11.9% 13.7% 0.9%[libx264 @ 00000000010f7cc0] i16 v,h,dc,p: 37% 34% 22%  8%[libx264 @ 00000000010f7cc0] i8 v,h,dc,ddl,ddr,vr,hd,vl,hu: 19% 19% 50%  2%  2%  1%  3%  1%  3%[libx264 @ 00000000010f7cc0] i4 v,h,dc,ddl,ddr,vr,hd,vl,hu: 31% 26% 15%  4%  7%  4%  6%  4%  3%[libx264 @ 00000000010f7cc0] i8c dc,h,v,p: 45% 29% 23%  3%[libx264 @ 00000000010f7cc0] Weighted P-Frames: Y:0.5% UV:0.1%[libx264 @ 00000000010f7cc0] ref P L0: 68.7%  9.4% 15.3%  6.6%  0.0%[libx264 @ 00000000010f7cc0] ref B L0: 79.3% 16.4%  4.3%[libx264 @ 00000000010f7cc0] ref B L1: 96.7%  3.3%[libx264 @ 00000000010f7cc0] kb/s:538.75[aac @ 00000000010f9680] Qavg: 19866.174
回复

使用道具 举报

您需要登录后才可以回帖 登录 | 立即注册

本版积分规则

手机版|Archiver|ChinaFFmpeg    

GMT+8, 2019-5-26 19:58 , Processed in 0.028318 second(s), 20 queries .

Powered by ChinaFFmpeg

© 2013 - 2018 www.chinaffmpeg.com

快速回复 返回顶部 返回列表