请选择 进入手机版 | 继续访问电脑版
设为首页收藏本站
开启辅助访问
切换到宽版

ChinaFFmpeg

 找回密码
 立即注册

QQ登录

只需一步,快速开始

用新浪微博登录

只需一步,快速搞定

搜索
热搜: 活动 交友 discuz
查看: 47|回复: 1

这是什么错啊

[复制链接]
黑户  发表于 2019-3-13 16:46:26 |阅读模式
{"ExitCode":0,"StandardOutput":"","StandardError":"ffmpeg version N-79630-g9ac154d Copyright (c) 2000-2016 the FFmpeg developers\r\n  built with gcc 5.3.0 (GCC)\r\n  configuration: --enable-gpl --enable-version3 --disable-w32threads --enable-avisynth --enable-bzlib --enable-fontconfig --enable-frei0r --enable-gnutls --enable-iconv --enable-libass --enable-libbluray --enable-libbs2b --enable-libcaca --enable-libfreetype --enable-libgme --enable-libgsm --enable-libilbc --enable-libmodplug --enable-libmfx --enable-libmp3lame --enable-libopencore-amrnb --enable-libopencore-amrwb --enable-libopenjpeg --enable-libopus --enable-librtmp --enable-libschroedinger --enable-libsnappy --enable-libsoxr --enable-libspeex --enable-libtheora --enable-libtwolame --enable-libvidstab --enable-libvo-amrwbenc --enable-libvorbis --enable-libvpx --enable-libwavpack --enable-libwebp --enable-libx264 --enable-libx265 --enable-libxavs --enable-libxvid --enable-libzimg --enable-lzma --enable-decklink --enable-zlib\r\n  libavutil      55. 22.101 / 55. 22.101\r\n  libavcodec     57. 38.100 / 57. 38.100\r\n  libavformat    57. 34.103 / 57. 34.103\r\n  libavdevice    57.  0.101 / 57.  0.101\r\n  libavfilter     6. 44.100 /  6. 44.100\r\n  libswscale      4.  1.100 /  4.  1.100\r\n  libswresample   2.  0.101 /  2.  0.101\r\n  libpostproc    54.  0.100 / 54.  0.100\r\nInput #0, mov,mp4,m4a,3gp,3g2,mj2, from 'D:\\WebUpload\\ZiLiao\\upload\\temp\\905ef572fdcf447299f4cae6516479c9.mp4':\r\n  Metadata:\r\n    major_brand     : mp42\r\n    minor_version   : 1\r\n    compatible_brands: isommp423gp5\r\n    creation_time   : 2011-06-29 13:05:38\r\n  Duration: 00:03:08.56, start: 0.000000, bitrate: 1411 kb/s\r\n    Stream #0:0(und): Video: mpeg4 (Simple Profile) (mp4v / 0x7634706D), yuv420p, 640x480 [SAR 1:1 DAR 4:3], 1283 kb/s, 23.98 fps, 23.98 tbr, 24k tbn (default)\r\n    Metadata:\r\n      creation_time   : 2011-06-29 13:05:38\r\n      handler_name    : GPAC ISO Video Handler\r\n    Stream #0:1(und): Audio: aac (LC) (mp4a / 0x6134706D), 44100 Hz, stereo, fltp, 125 kb/s (default)\r\n    Metadata:\r\n      creation_time   : 2011-06-29 13:05:38\r\n      handler_name    : GPAC ISO Audio Handler\r\n    Stream #0:2(und): Data: none (mp4s / 0x7334706D), 0 kb/s (default)\r\n    Metadata:\r\n      creation_time   : 2011-06-29 13:05:39\r\n      handler_name    : GPAC MPEG-4 OD Handler\r\n    Stream #0:3(und): Data: none (mp4s / 0x7334706D), 0 kb/s (default)\r\n    Metadata:\r\n      creation_time   : 2011-06-29 13:05:39\r\n      handler_name    : GPAC MPEG-4 Scene Description Handler\r\n[libx264 @ 0400ce40] using SAR=1/1\r\n[libx264 @ 0400ce40] using cpu capabilities: MMX2 SSE2Fast SSSE3 SSE4.2 AVX FMA3 AVX2 LZCNT BMI2\r\n[libx264 @ 0400ce40] profile High, level 3.0\r\n[libx264 @ 0400ce40] 264 - core 148 r2694 3b70645 - H.264/MPEG-4 AVC codec - Copyleft 2003-2016 - http://www.videolan.org/x264.html - options: cabac=1 ref=3 deblock=1:0:0 analyse=0x3:0x113 me=hex subme=7 psy=1 psy_rd=1.00:0.00 mixed_ref=1 me_range=16 chroma_me=1 trellis=1 8x8dct=1 cqm=0 deadzone=21,11 fast_pskip=1 chroma_qp_offset=-2 threads=6 lookahead_threads=1 sliced_threads=0 nr=0 decimate=1 interlaced=0 bluray_compat=0 constrained_intra=0 bframes=3 b_pyramid=2 b_adapt=1 b_bias=0 direct=1 weightb=1 open_gop=0 weightp=2 keyint=250 keyint_min=23 scenecut=40 intra_refresh=0 rc_lookahead=40 rc=crf mbtree=1 crf=23.0 qcomp=0.60 qpmin=0 qpmax=69 qpstep=4 ip_ratio=1.40 aq=1:1.00\r\n[mp4 @ 0400bf00] Using AVStream.codec to pass codec parameters to muxers is deprecated, use AVStream.codecpar instead.\r\n    Last message repeated 1 times\r\nOutput #0, mp4, to 'D:\\WebUpload\\ZiLiao\\upload\\905ef572fdcf447299f4cae6516479c9.mp4':\r\n  Metadata:\r\n    major_brand     : mp42\r\n    minor_version   : 1\r\n    compatible_brands: isommp423gp5\r\n    encoder         : Lavf57.34.103\r\n    Stream #0:0(und): Video: h264 ([33][0][0][0] / 0x0021), yuv420p, 640x480 [SAR 1:1 DAR 4:3], q=2-31, 23.98 fps, 24k tbn (default)\r\n    Metadata:\r\n      creation_time   : 2011-06-29 13:05:38\r\n      handler_name    : GPAC ISO Video Handler\r\n      encoder         : Lavc57.38.100 libx264\r\n    Side data:\r\n      cpb: bitrate max/min/avg: 0/0/0 buffer size: 0 vbv_delay: -1\r\n    Stream #0:1(und): Audio: aac (LC) ([64][0][0][0] / 0x0040), 44100 Hz, stereo, fltp, 128 kb/s (default)\r\n    Metadata:\r\n      creation_time   : 2011-06-29 13:05:38\r\n      handler_name    : GPAC ISO Audio Handler\r\n      encoder         : Lavc57.38.100 aac\r\nStream mapping:\r\n  Stream #0:0 -> #0:0 (mpeg4 (native) -> h264 (libx264))\r\n  Stream #0:1 -> #0:1 (aac (native) -> aac (native))\r\nPress [q] to stop, [?] for help\r\nframe=   75 fps=0.0 q=28.0 size=      44kB time=00:00:03.39 bitrate= 107.1kbits/s speed=6.73x    \r\nframe=  129 fps=128 q=28.0 size=     124kB time=00:00:05.57 bitrate= 181.7kbits/s speed=5.54x    \r\nframe=  185 fps=123 q=28.0 size=     210kB time=00:00:08.15 bitrate= 210.8kbits/s speed=5.42x    \r\nframe=  240 fps=120 q=28.0 size=     294kB time=00:00:10.19 bitrate= 236.3kbits/s speed=5.08x    \r\nframe=  280 fps=112 q=28.0 size=     409kB time=00:00:12.00 bitrate= 279.2kbits/s speed=4.78x    \r\nframe=  312 fps=103 q=28.0 size=     562kB time=00:00:13.37 bitrate= 344.0kbits/s speed= 4.4x    \r\nframe=  353 fps= 99 q=28.0 size=     685kB time=00:00:15.20 bitrate= 369.2kbits/s speed=4.28x    \r\nframe=  394 fps= 96 q=28.0 size=     779kB time=00:00:16.57 bitrate= 384.7kbits/s speed=4.06x    \r\nframe=  434 fps= 94 q=28.0 size=     903kB time=00:00:18.41 bitrate= 401.8kbits/s speed=3.98x    \r\nframe=  471 fps= 92 q=28.0 size=     996kB time=00:00:19.89 bitrate= 410.1kbits/s speed=3.88x    \r\nframe=  497 fps= 88 q=28.0 size=    1109kB time=00:00:21.17 bitrate= 429.1kbits/s speed=3.76x    \r\nframe=  534 fps= 87 q=28.0 size=    1247kB time=00:00:22.54 bitrate= 453.1kbits/s speed=3.68x    \r\nframe=  559 fps= 84 q=28.0 size=    1345kB time=00:00:23.80 bitrate= 463.0kbits/s speed=3.59x    \r\nframe=  592 fps= 83 q=28.0 size=    1495kB time=00:00:24.84 bitrate= 493.0kbits/s speed=3.48x    \r\nframe=  621 fps= 81 q=28.0 size=    1616kB time=00:00:26.21 bitrate= 505.1kbits/s speed=3.42x    \r\nframe=  647 fps= 79 q=28.0 size=    1717kB time=00:00:27.58 bitrate= 510.0kbits/s speed=3.38x    \r\nframe=  677 fps= 78 q=28.0 size=    1839kB time=00:00:28.51 bitrate= 528.3kbits/s speed=3.28x    \r\nframe=  710 fps= 77 q=28.0 size=    1961kB time=00:00:29.88 bitrate= 537.5kbits/s speed=3.25x    \r\nframe=  735 fps= 76 q=28.0 size=    2052kB time=00:00:30.81 bitrate= 545.5kbits/s speed=3.17x    \r\nframe=  766 fps= 75 q=28.0 size=    2164kB time=00:00:32.18 bitrate= 550.8kbits/s speed=3.15x    \r\nframe=  800 fps= 75 q=28.0 size=    2265kB time=00:00:33.55 bitrate= 553.0kbits/s speed=3.13x    \r\nframe=  830 fps= 74 q=28.0 size=    2351kB time=00:00:34.94 bitrate= 551.0kbits/s speed= 3.1x    \r\nframe=  856 fps= 73 q=28.0 size=    2454kB time=00:00:35.85 bitrate= 560.8kbits/s speed=3.04x    \r\nframe=  889 fps= 72 q=28.0 size=    2563kB time=00:00:37.26 bitrate= 563.3kbits/s speed=3.03x    \r\nframe=  919 fps= 72 q=28.0 size=    2674kB time=00:00:38.61 bitrate= 567.3kbits/s speed=3.01x    \r\nframe=  955 fps= 72 q=28.0 size=    2778kB time=00:00:40.12 bitrate= 567.1kbits/s speed=3.01x    \r\nframe=  988 fps= 72 q=28.0 size=    2875kB time=00:00:41.65 bitrate= 565.5kbits/s speed=3.01x    \r\nframe= 1021 fps= 71 q=28.0 size=    2985kB time=00:00:43.11 bitrate= 567.1kbits/s speed=3.01x    \r\nframe= 1073 fps= 72 q=28.0 size=    3078kB time=00:00:45.02 bitrate= 560.1kbits/s speed=3.04x    \r\nframe= 1120 fps= 73 q=28.0 size=    3172kB time=00:00:46.88 bitrate= 554.2kbits/s speed=3.06x    \r\nframe= 1153 fps= 73 q=28.0 size=    3281kB time=00:00:48.29 bitrate= 556.5kbits/s speed=3.05x    \r\nframe= 1194 fps= 73 q=28.0 size=    3380kB time=00:00:50.08 bitrate= 552.9kbits/s speed=3.06x    \r\nframe= 1237 fps= 73 q=28.0 size=    3492kB time=00:00:51.91 bitrate= 550.9kbits/s speed=3.08x    \r\nframe= 1292 fps= 74 q=28.0 size=    3608kB time=00:00:54.21 bitrate= 545.2kbits/s speed=3.12x    \r\nframe= 1318 fps= 74 q=28.0 size=    3686kB time=00:00:55.56 bitrate= 543.4kbits/s speed=3.11x    \r\nframe= 1360 fps= 74 q=28.0 size=    3784kB time=00:00:56.95 bitrate= 544.2kbits/s speed= 3.1x    \r\nframe= 1403 fps= 74 q=28.0 size=    3893kB time=00:00:58.79 bitrate= 542.4kbits/s speed=3.11x    \r\nframe= 1448 fps= 75 q=28.0 size=    4022kB time=00:01:00.62 bitrate= 543.4kbits/s speed=3.12x    \r\nframe= 1494 fps= 75 q=28.0 size=    4154kB time=00:01:02.46 bitrate= 544.8kbits/s speed=3.13x    \r\nframe= 1538 fps= 75 q=28.0 size=    4250kB time=00:01:04.71 bitrate= 538.1kbits/s speed=3.17x    \r\nframe= 1580 fps= 75 q=28.0 size=    4367kB time=00:01:06.13 bitrate= 541.0kbits/s speed=3.16x    \r\nframe= 1614 fps= 75 q=28.0 size=    4471kB time=00:01:07.52 bitrate= 542.4kbits/s speed=3.14x    \r\nframe= 1648 fps= 75 q=28.0 size=    4577kB time=00:01:09.00 bitrate= 543.4kbits/s speed=3.14x    \r\nframe= 1692 fps= 75 q=28.0 size=    4688kB time=00:01:11.05 bitrate= 540.5kbits/s speed=3.16x    \r\nframe= 1743 fps= 76 q=28.0 size=    4822kB time=00:01:13.02 bitrate= 540.9kbits/s speed=3.18x    \r\nframe= 1798 fps= 77 q=28.0 size=    4910kB time=00:01:15.30 bitrate= 534.1kbits/s speed= 3.2x    \r\nframe= 1846 fps= 77 q=28.0 size=    5000kB time=00:01:17.18 bitrate= 530.7kbits/s speed=3.22x    \r\nframe= 1887 fps= 77 q=28.0 size=    5103kB time=00:01:18.99 bitrate= 529.2kbits/s speed=3.22x    \r\nframe= 1930 fps= 77 q=28.0 size=    5214kB time=00:01:20.82 bitrate= 528.4kbits/s speed=3.23x    \r\nframe= 1973 fps= 77 q=28.0 size=    5320kB time=00:01:22.66 bitrate= 527.2kbits/s speed=3.24x    \r\nframe= 2000 fps= 77 q=28.0 size=    5420kB time=00:01:23.70 bitrate= 530.4kbits/s speed=3.21x    \r\nframe= 2040 fps= 77 q=28.0 size=    5506kB time=00:01:25.40 bitrate= 528.1kbits/s speed=3.22x    \r\nframe= 2084 fps= 77 q=28.0 size=    5631kB time=00:01:27.23 bitrate= 528.8kbits/s speed=3.22x    \r\nframe= 2121 fps= 77 q=28.0 size=    5723kB time=00:01:28.95 bitrate= 527.0kbits/s speed=3.23x    \r\nframe= 2161 fps= 77 q=28.0 size=    5812kB time=00:01:30.44 bitrate= 526.5kbits/s speed=3.22x    \r\nframe= 2185 fps= 76 q=28.0 size=    5913kB time=00:01:31.37 bitrate= 530.2kbits/s speed= 3.2x    \r\nframe= 2216 fps= 76 q=28.0 size=    6027kB time=00:01:32.74 bitrate= 532.4kbits/s speed=3.19x    \r\nframe= 2250 fps= 76 q=28.0 size=    6143kB time=00:01:34.13 bitrate= 534.6kbits/s speed=3.18x    \r\nframe= 2280 fps= 76 q=28.0 size=    6239kB time=00:01:35.50 bitrate= 535.2kbits/s speed=3.17x    \r\nframe= 2312 fps= 75 q=28.0 size=    6362kB time=00:01:36.87 bitrate= 538.0kbits/s speed=3.16x    \r\nframe= 2341 fps= 75 q=28.0 size=    6483kB time=00:01:37.98 bitrate= 542.0kbits/s speed=3.15x    \r\nframe= 2381 fps= 75 q=28.0 size=    6598kB time=00:01:39.63 bitrate= 542.5kbits/s speed=3.15x    \r\nframe= 2417 fps= 75 q=28.0 size=    6733kB time=00:01:41.00 bitrate= 546.1kbits/s speed=3.14x    \r\nframe= 2458 fps= 75 q=28.0 size=    6829kB time=00:01:42.84 bitrate= 544.0kbits/s speed=3.14x    \r\nframe= 2493 fps= 75 q=28.0 size=    6935kB time=00:01:44.21 bitrate= 545.2kbits/s speed=3.14x    \r\nframe= 2528 fps= 75 q=28.0 size=    7015kB time=00:01:45.83 bitrate= 543.0kbits/s speed=3.14x    \r\nframe= 2561 fps= 75 q=28.0 size=    7144kB time=00:01:47.13 bitrate= 546.2kbits/s speed=3.13x    \r\nframe= 2594 fps= 75 q=28.0 size=    7260kB time=00:01:48.78 bitrate= 546.7kbits/s speed=3.13x    \r\nframe= 2627 fps= 75 q=28.0 size=    7365kB time=00:01:50.10 bitrate= 548.0kbits/s speed=3.13x    \r\nframe= 2665 fps= 75 q=28.0 size=    7531kB time=00:01:51.54 bitrate= 553.0kbits/s speed=3.12x    \r\nframe= 2682 fps= 74 q=28.0 size=    7672kB time=00:01:52.19 bitrate= 560.2kbits/s speed= 3.1x    \r\nframe= 2710 fps= 74 q=28.0 size=    7869kB time=00:01:53.38 bitrate= 568.5kbits/s speed=3.09x    \r\nframe= 2726 fps= 73 q=28.0 size=    7985kB time=00:01:54.31 bitrate= 572.2kbits/s speed=3.07x    \r\nframe= 2756 fps= 73 q=28.0 size=    8141kB time=00:01:55.21 bitrate= 578.8kbits/s speed=3.05x    \r\nframe= 2792 fps= 73 q=28.0 size=    8248kB time=00:01:56.72 bitrate= 578.9kbits/s speed=3.05x    \r\nframe= 2824 fps= 73 q=28.0 size=    8352kB time=00:01:57.98 bitrate= 579.9kbits/s speed=3.04x    \r\nframe= 2857 fps= 73 q=28.0 size=    8462kB time=00:01:59.35 bitrate= 580.8kbits/s speed=3.04x    \r\nframe= 2899 fps= 73 q=28.0 size=    8574kB time=00:02:01.18 bitrate= 579.6kbits/s speed=3.05x    \r\nframe= 2942 fps= 73 q=28.0 size=    8684kB time=00:02:03.01 bitrate= 578.3kbits/s speed=3.05x    \r\nframe= 2986 fps= 73 q=28.0 size=    8802kB time=00:02:04.85 bitrate= 577.5kbits/s speed=3.06x    \r\nframe= 3030 fps= 73 q=28.0 size=    8922kB time=00:02:06.68 bitrate= 576.9kbits/s speed=3.06x    \r\nframe= 3073 fps= 73 q=28.0 size=    9044kB time=00:02:08.52 bitrate= 576.5kbits/s speed=3.07x    \r\nframe= 3117 fps= 74 q=28.0 size=    9194kB time=00:02:10.35 bitrate= 577.8kbits/s speed=3.08x    \r\nframe= 3155 fps= 74 q=28.0 size=    9302kB time=00:02:12.21 bitrate= 576.3kbits/s speed=3.09x    \r\nframe= 3195 fps= 74 q=28.0 size=    9410kB time=00:02:13.58 bitrate= 577.1kbits/s speed=3.08x    \r\nframe= 3238 fps= 74 q=28.0 size=    9543kB time=00:02:15.41 bitrate= 577.3kbits/s speed=3.09x    \r\nframe= 3276 fps= 74 q=28.0 size=    9726kB time=00:02:16.83 bitrate= 582.2kbits/s speed=3.08x    \r\nframe= 3309 fps= 74 q=28.0 size=    9875kB time=00:02:18.15 bitrate= 585.5kbits/s speed=3.08x    \r\nframe= 3338 fps= 74 q=28.0 size=   10028kB time=00:02:19.55 bitrate= 588.7kbits/s speed=3.07x    \r\nframe= 3375 fps= 74 q=28.0 size=   10200kB time=00:02:20.92 bitrate= 592.9kbits/s speed=3.07x    \r\nframe= 3408 fps= 73 q=28.0 size=   10341kB time=00:02:22.45 bitrate= 594.7kbits/s speed=3.07x    \r\nframe= 3441 fps= 73 q=28.0 size=   10505kB time=00:02:23.96 bitrate= 597.8kbits/s speed=3.07x    \r\nframe= 3474 fps= 73 q=28.0 size=   10626kB time=00:02:25.47 bitrate= 598.4kbits/s speed=3.07x    \r\nframe= 3495 fps= 73 q=28.0 size=   10724kB time=00:02:25.96 bitrate= 601.9kbits/s speed=3.04x    \r\nframe= 3529 fps= 73 q=28.0 size=   10885kB time=00:02:27.35 bitrate= 605.2kbits/s speed=3.04x    \r\nframe= 3562 fps= 73 q=28.0 size=   11031kB time=00:02:28.72 bitrate= 607.6kbits/s speed=3.04x    \r\nframe= 3595 fps= 73 q=28.0 size=   11206kB time=00:02:30.23 bitrate= 611.0kbits/s speed=3.04x    \r\nframe= 3627 fps= 73 q=28.0 size=   11354kB time=00:02:31.46 bitrate= 614.1kbits/s speed=3.03x    \r\nframe= 3661 fps= 72 q=28.0 size=   11498kB time=00:02:33.15 bitrate= 615.0kbits/s speed=3.03x    \r\nframe= 3683 fps= 72 q=28.0 size=   11614kB time=00:02:34.06 bitrate= 617.6kbits/s speed=3.02x    \r\nframe= 3713 fps= 72 q=28.0 size=   11756kB time=00:02:35.13 bitrate= 620.8kbits/s speed=3.01x    \r\nframe= 3745 fps= 72 q=28.0 size=   11889kB time=00:02:36.52 bitrate= 622.2kbits/s speed=3.01x    \r\nframe= 3782 fps= 72 q=28.0 size=   12045kB time=00:02:38.05 bitrate= 624.3kbits/s speed=3.01x    \r\nframe= 3826 fps= 72 q=28.0 size=   12215kB time=00:02:39.73 bitrate= 626.4kbits/s speed=3.01x    \r\nframe= 3859 fps= 72 q=28.0 size=   12391kB time=00:02:41.10 bitrate= 630.1kbits/s speed=3.01x    \r\nframe= 3892 fps= 72 q=28.0 size=   12528kB time=00:02:42.70 bitrate= 630.8kbits/s speed=3.01x    \r\nframe= 3925 fps= 72 q=28.0 size=   12666kB time=00:02:44.11 bitrate= 632.2kbits/s speed=3.01x    \r\nframe= 3965 fps= 72 q=28.0 size=   12839kB time=00:02:45.69 bitrate= 634.7kbits/s speed=3.01x    \r\nframe= 4002 fps= 72 q=28.0 size=   12993kB time=00:02:47.11 bitrate= 636.9kbits/s speed=3.01x    \r\nframe= 4031 fps= 72 q=28.0 size=   13132kB time=00:02:48.43 bitrate= 638.7kbits/s speed=   3x    \r\nframe= 4064 fps= 72 q=28.0 size=   13273kB time=00:02:49.83 bitrate= 640.2kbits/s speed=   3x    \r\nframe= 4098 fps= 72 q=28.0 size=   13442kB time=00:02:51.20 bitrate= 643.2kbits/s speed=2.99x    \r\nframe= 4134 fps= 72 q=28.0 size=   13604kB time=00:02:52.89 bitrate= 644.6kbits/s speed=   3x    \r\nframe= 4170 fps= 72 q=28.0 size=   13762kB time=00:02:54.40 bitrate= 646.4kbits/s speed=   3x    \r\nframe= 4199 fps= 72 q=28.0 size=   13891kB time=00:02:55.33 bitrate= 649.0kbits/s speed=2.99x    \r\nframe= 4240 fps= 72 q=28.0 size=   14058kB time=00:02:57.16 bitrate= 650.0kbits/s speed=2.99x    \r\nframe= 4273 fps= 72 q=28.0 size=   14214kB time=00:02:58.53 bitrate= 652.2kbits/s speed=2.99x    \r\nframe= 4306 fps= 71 q=28.0 size=   14377kB time=00:02:59.90 bitrate= 654.7kbits/s speed=2.99x    \r\nframe= 4332 fps= 71 q=25.0 size=   14517kB time=00:03:01.11 bitrate= 656.6kbits/s speed=2.98x    \r\nframe= 4375 fps= 71 q=28.0 size=   14728kB time=00:03:02.67 bitrate= 660.5kbits/s speed=2.98x    \r\nframe= 4415 fps= 71 q=28.0 size=   14886kB time=00:03:04.50 bitrate= 661.0kbits/s speed=2.99x    \r\nframe= 4453 fps= 72 q=28.0 size=   15018kB time=00:03:06.01 bitrate= 661.4kbits/s speed=2.99x    \r\nframe= 4497 fps= 72 q=28.0 size=   15162kB time=00:03:07.98 bitrate= 660.7kbits/s speed=2.99x    \r\nframe= 4521 fps= 71 q=-1.0 Lsize=   15521kB time=00:03:08.54 bitrate= 674.4kbits/s speed=2.97x    \r\nvideo:12390kB audio:2999kB subtitle:0kB other streams:0kB global headers:0kB muxing overhead: 0.857357%\r\n[libx264 @ 0400ce40] frame I:24    Avg QP:17.56  size: 19972\r\n[libx264 @ 0400ce40] frame P:2655  Avg QP:20.94  size:  3868\r\n[libx264 @ 0400ce40] frame B:1842  Avg QP:25.63  size:  1052\r\n[libx264 @ 0400ce40] consecutive B-frames: 37.5% 20.2% 12.7% 29.6%\r\n[libx264 @ 0400ce40] mb I  I16..4: 35.0% 59.2%  5.8%\r\n[libx264 @ 0400ce40] mb P  I16..4:  2.9%  5.3%  0.1%  P16..4: 35.9%  9.1%  5.3%  0.0%  0.0%    skip:41.4%\r\n[libx264 @ 0400ce40] mb B  I16..4:  0.6%  1.6%  0.0%  B16..8: 33.5%  2.3%  0.3%  direct: 1.1%  skip:60.7%  L0:50.5% L1:42.6% BI: 7.0%\r\n[libx264 @ 0400ce40] 8x8 transform intra:64.6% inter:81.1%\r\n[libx264 @ 0400ce40] coded y,uvDC,uvAC intra: 31.2% 54.9% 9.6% inter: 11.9% 13.7% 0.9%\r\n[libx264 @ 0400ce40] i16 v,h,dc,p: 37% 34% 22%  7%\r\n[libx264 @ 0400ce40] i8 v,h,dc,ddl,ddr,vr,hd,vl,hu: 16% 18% 54%  2%  2%  1%  3%  1%  3%\r\n[libx264 @ 0400ce40] i4 v,h,dc,ddl,ddr,vr,hd,vl,hu: 30% 25% 16%  4%  7%  4%  7%  4%  3%\r\n[libx264 @ 0400ce40] i8c dc,h,v,p: 45% 29% 23%  3%\r\n[libx264 @ 0400ce40] Weighted P-Frames: Y:0.5% UV:0.1%\r\n[libx264 @ 0400ce40] ref P L0: 68.7%  9.4% 15.3%  6.6%  0.0%\r\n[libx264 @ 0400ce40] ref B L0: 79.4% 16.2%  4.4%\r\n[libx264 @ 0400ce40] ref B L1: 96.8%  3.2%\r\n[libx264 @ 0400ce40] kb/s:538.26\r\n[aac @ 03fbed40] Qavg: 1310.817\r\n","StartTime":"2019-03-13T16:37:52.8910476+08:00","ExitTime":"2019-03-13T16:38:56.3606779+08:00","RunTime":"00:01:03.4696303"}
回复

使用道具

发表于 2019-3-14 07:25:13 | 显示全部楼层
ExitCode 不是0 么? 有啥问题?
回复 支持 反对

使用道具 举报

您需要登录后才可以回帖 登录 | 立即注册

本版积分规则

手机版|Archiver|ChinaFFmpeg    

GMT+8, 2019-3-24 11:35 , Processed in 0.027409 second(s), 21 queries .

Powered by ChinaFFmpeg

© 2013 - 2018 www.chinaffmpeg.com

快速回复 返回顶部 返回列表