请选择 进入手机版 | 继续访问电脑版

ChinaFFmpeg

 找回密码
 立即注册

QQ登录

只需一步,快速开始

查看: 5602|回复: 3

视频源 指定一个时间段剪切然后加上水印 处理过程越来越慢

[复制链接]
发表于 2016-10-17 13:09:41 | 显示全部楼层 |阅读模式

ffmpeg -y -ss 10 -i hello.mp4 -vf  movie=watermak.png[watermark];[in][watermark]overlay=10:10[out] -t 50 marked.mp4

当文件大100m以上,处理越来越慢,最后不动了,会是什么原因?
回复

使用道具 举报

 楼主| 发表于 2016-10-17 13:20:09 | 显示全部楼层
ffmpeg version 2.6.3 Copyright (c) 2000-2015 the FFmpeg developers
  built with gcc 4.6 (GCC) 20120106 (prerelease)
  configuration: --target-os=linux --prefix=../android-lib-ff-full --enable-cross-compile --enable-runtime-cpudetect --disable-asm --arch=arm --cc=/home/leixiaohua1020/cdtworkspace/android-ndk-r9d/toolchains/arm-linux-androideabi-4.6/prebuilt/linux-x86_64/bin/arm-linux-androideabi-gcc --cross-prefix=/home/leixiaohua1020/cdtworkspace/android-ndk-r9d/toolchains/arm-linux-androideabi-4.6/prebuilt/linux-x86_64/bin/arm-linux-androideabi- --disable-stripping --nm=/home/leixiaohua1020/cdtworkspace/android-ndk-r9d/toolchains/arm-linux-androideabi-4.6/prebuilt/linux-x86_64/bin/arm-linux-androideabi-nm --sysroot=/home/leixiaohua1020/cdtworkspace/android-ndk-r9d/platforms/android-8/arch-arm --enable-gpl --enable-shared --disable-static --enable-nonfree --enable-version3 --enable-small --disable-vda --disable-iconv --enable-libx264 --enable-libfaac --enable-encoder=libx264 --enable-encoder=libfaac --enable-zlib --disable-ffprobe --disable-ffplay --disable-ffmpeg --disable-ffserver --disable-debug --extra-cflags='-I ../android-lib/include -fPIC -DANDROID -D__thumb__ -mthumb -Wfatal-errors -Wno-deprecated -mfloat-abi=softfp -marm -march=armv7-a' --extra-ldflags='-L ../android-lib/lib'
  libavutil      54. 20.100 / 54. 20.100
  libavcodec     56. 26.100 / 56. 26.100
  libavformat    56. 25.101 / 56. 25.101
  libavdevice    56.  4.100 / 56.  4.100
  libavfilter     5. 11.102 /  5. 11.102
  libswscale      3.  1.101 /  3.  1.101
  libswresample   1.  1.100 /  1.  1.100
  libpostproc    53.  3.100 / 53.  3.100
Splitting the commandline.
Reading option '-y' ... matched as option 'y' (overwrite output files) with argument '1'.
Reading option '-ss' ... matched as option 'ss' (set the start time offset) with argument '130'.
Reading option '-i' ... matched as input file with argument '/storage/emulated/0/DCIM/1Videoshow/20161016145433426.mp4'.
Reading option '-vf' ... matched as option 'vf' (set video filters) with argument 'movie=/storage/emulated/0/watermark/my_logo.png[watermark];[a][watermark]overlay=496:564[out]'.
Reading option '-t' ... matched as option 't' (record or transcode "duration" seconds of audio/video) with argument '45'.
Reading option '/storage/emulated/0/watermark/20161713145.mp4' ... matched as output file.
Finished splitting the commandline.
Parsing a group of options: global .
Applying option y (overwrite output files) with argument 1.
Successfully parsed a group of options.
Parsing a group of options: input file /storage/emulated/0/DCIM/1Videoshow/乐秀视频第5部_20161016145433426.mp4.
Applying option ss (set the start time offset) with argument 130.
Successfully parsed a group of options.
Opening an input file: /storage/emulated/0/DCIM/1Videoshow/20161016145433426.mp4.
Format mov,mp4,m4a,3gp,3g2,mj2 probed with size=2048 and score=100
ISO: File Type Major Brand: isom
Before avformat_find_stream_info() pos: 304561333 bytes read:308131 seeks:1
no picture
All info found
After avformat_find_stream_info() pos: 9093 bytes read:340899 seeks:2 frames:3
Input #0, mov,mp4,m4a,3gp,3g2,mj2, from '/storage/emulated/0/DCIM/1Videoshow/20161016145433426.mp4':
  Metadata:
    major_brand     : isom
    minor_version   : 512
    compatible_brands: isomiso2avc1mp41
    encoder         : Lavf55.19.104
  Duration: 00:07:07.84, start: 0.040000, bitrate: 5694 kb/s
    Stream #0:0(und), 2, 1/1200000: Video: h264 (avc1 / 0x31637661), yuv420p, 1280x720, 5561 kb/s, 25 fps, 25 tbr, 1200k tbn, 2400k tbc (default)
    Metadata:
      handler_name    : VideoHandler
    Stream #0:1(und), 1, 1/44100: Audio: aac (LC) (mp4a / 0x6134706D), 44100 Hz, stereo, fltp, 128 kb/s (default)
    Metadata:
      handler_name    : SoundHandler
Successfully opened the file.
Parsing a group of options: output file /storage/emulated/0/watermark/20161713145.mp4.
Applying option vf (set video filters) with argument movie=/storage/emulated/0/watermark/my_logo.png[watermark];[a][watermark]overlay=496:564[out].
Applying option t (record or transcode "duration" seconds of audio/video) with argument 45.
Successfully parsed a group of options.
Opening an output file: /storage/emulated/0/watermark/20161713145.mp4.
Successfully opened the file.
Setting 'filename' to value '/storage/emulated/0/watermark/my_logo.png'
Format png_pipe probed with size=2048 and score=99
Before avformat_find_stream_info() pos: 0 bytes read:5607 seeks:0
After avformat_find_stream_info() pos: 5607 bytes read:5607 seeks:0 frames:1
seek_point:0 format_namenull) file_name:/storage/emulated/0/watermark/my_logo.png stream_index:-1
Setting 'x' to value '496'
Setting 'y' to value '564'
Setting 'video_size' to value '1280x720'
Setting 'pix_fmt' to value '0'
Setting 'time_base' to value '1/1200000'
Setting 'pixel_aspect' to value '0/1'
Setting 'sws_param' to value 'flags=2'
Setting 'frame_rate' to value '25/1'
w:1280 h:720 pixfmt:yuv420p tb:1/1200000 fr:25/1 sar:0/1 sws_param:flags=2
compat: called with args=[yuv420p|yuvj420p|yuv422p|yuvj422p|yuv444p|yuvj444p|nv12|nv16]
Setting 'pix_fmts' to value 'yuv420p|yuvj420p|yuv422p|yuvj422p|yuv444p|yuvj444p|nv12|nv16'
Setting 'flags' to value '0x4'
w:iw h:ih flags:'0x4' interl:0
auto-inserting filter 'auto-inserted scaler 0' between the filter 'Parsed_movie_0' and the filter 'Parsed_overlay_1'
query_formats: 7 queried, 5 merged, 1 already done, 0 delayed
w:289 h:68 fmt:rgba sar:1/1 -> w:289 h:68 fmt:yuva420p sar:1/1 flags:0x4
main w:1280 h:720 fmt:yuv420p overlay w:289 h:68 fmt:yuva420p eof_action:repeat
Selected 1/1000000 time base
Sync level 2
Setting 'time_base' to value '1/44100'
Setting 'sample_rate' to value '44100'
Setting 'sample_fmt' to value 'fltp'
Setting 'channel_layout' to value '0x3'
tb:1/44100 samplefmt:fltp samplerate:44100 chlayout:0x3
Setting 'sample_fmts' to value 's16'
Setting 'channel_layouts' to value '0x4|0x3|0x7|0x107|0x37|0x3f'
auto-inserting filter 'auto-inserted resampler 0' between the filter 'Parsed_anull_0' and the filter 'audio format for output stream 0:1'
query_formats: 6 queried, 12 merged, 3 already done, 0 delayed
ch:2 chl:stereo fmt:fltp r:44100Hz -> ch:2 chl:stereo fmt:s16 r:44100Hz
using mv_range_thread = 24
using cpu capabilities: none!
profile High, level 3.1
264 - core 142 - H.264/MPEG-4 AVC codec - Copyleft 2003-2014 - http://www.videolan.org/x264.html - options: cabac=1 ref=3 deblock=1:0:0 analyse=0x3:0x113 me=hex subme=7 psy=1 psy_rd=1.00:0.00 mixed_ref=1 me_range=16 chroma_me=1 trellis=1 8x8dct=1 cqm=0 deadzone=21,11 fast_pskip=1 chroma_qp_offset=-2 threads=12 lookahead_threads=2 sliced_threads=0 nr=0 decimate=1 interlaced=0 bluray_compat=0 constrained_intra=0 bframes=3 b_pyramid=2 b_adapt=1 b_bias=0 direct=1 weightb=1 open_gop=0 weightp=2 keyint=250 keyint_min=25 scenecut=40 intra_refresh=0 rc_lookahead=40 rc=crf mbtree=1 crf=23.0 qcomp=0.60 qpmin=0 qpmax=69 qpstep=4 ip_ratio=1.40 aq=1:1.00
Output #0, mp4, to '/storage/emulated/0/watermark/20161713145.mp4':
  Metadata:
    major_brand     : isom
    minor_version   : 512
    compatible_brands: isomiso2avc1mp41
    encoder         : Lavf56.25.101
    Stream #0:0(und), 0, 1/12800: Video: h264 (libx264) ([33][0][0][0] / 0x0021), yuv420p, 1280x720, q=-1--1, 25 fps, 12800 tbn, 25 tbc (default)
    Metadata:
      handler_name    : VideoHandler
      encoder         : Lavc56.26.100 libx264
    Stream #0:1(und), 0, 1/44100: Audio: aac (libfaac) ([64][0][0][0] / 0x0040), 44100 Hz, stereo, s16, 128 kb/s (default)
    Metadata:
      handler_name    : SoundHandler
      encoder         : Lavc56.26.100 libfaac
Stream mapping:
  Stream #0:0 -> #0:0 (h264 (native) -> h264 (libx264))
  Stream #0:1 -> #0:1 (aac (native) -> aac (libfaac))
Press [q] to stop, [?] for help
get ProcentOne called
nb_input_files 1
input files no.0
Total frame number 20274 maxProcent 90 oneprocent 225
no picture
frame=    0 fps=0.0 q=0.0 size=       0kB time=00:00:00.00 bitrate=N/A   
frame=    0 fps=0.0 q=0.0 size=       0kB time=00:00:00.00 bitrate=N/A   
frame=    0 fps=0.0 q=0.0 size=       0kB time=00:00:00.00 bitrate=N/A   
frame=    0 fps=0.0 q=0.0 size=       0kB time=00:00:00.00 bitrate=N/A   
frame=    0 fps=0.0 q=0.0 size=       0kB time=00:00:00.00 bitrate=N/A   
frame=    0 fps=0.0 q=0.0 size=       0kB time=00:00:00.00 bitrate=N/A   
frame=    0 fps=0.0 q=0.0 size=       0kB time=00:00:00.00 bitrate=N/A   
frame=    0 fps=0.0 q=0.0 size=       0kB time=00:00:00.00 bitrate=N/A   
frame=    0 fps=0.0 q=0.0 size=       0kB time=00:00:00.00 bitrate=N/A   
frame=    0 fps=0.0 q=0.0 size=       0kB time=00:00:00.00 bitrate=N/A   
frame=    0 fps=0.0 q=0.0 size=       0kB time=00:00:00.00 bitrate=N/A   
frame=    0 fps=0.0 q=0.0 size=       0kB time=00:00:00.00 bitrate=N/A   
frame=    0 fps=0.0 q=0.0 size=       0kB time=00:00:00.00 bitrate=N/A   
frame=    0 fps=0.0 q=0.0 size=       0kB time=00:00:00.00 bitrate=N/A   
frame=    0 fps=0.0 q=0.0 size=       0kB time=00:00:00.00 bitrate=N/A   
frame=    0 fps=0.0 q=0.0 size=       0kB time=00:00:00.00 bitrate=N/A   
frame=    0 fps=0.0 q=0.0 size=       0kB time=00:00:00.00 bitrate=N/A   
frame=    0 fps=0.0 q=0.0 size=       0kB time=00:00:00.00 bitrate=N/A   
frame=    0 fps=0.0 q=0.0 size=       0kB time=00:00:00.00 bitrate=N/A   
frame=    0 fps=0.0 q=0.0 size=       0kB time=00:00:00.00 bitrate=N/A   
frame=    0 fps=0.0 q=0.0 size=       0kB time=00:00:00.00 bitrate=N/A   
frame=    0 fps=0.0 q=0.0 size=       0kB time=00:00:00.00 bitrate=N/A   
frame=    0 fps=0.0 q=0.0 size=       0kB time=00:00:00.00 bitrate=N/A   
frame=    0 fps=0.0 q=0.0 size=       0kB time=00:00:00.00 bitrate=N/A   
frame=    0 fps=0.0 q=0.0 size=       0kB time=00:00:00.00 bitrate=N/A   
frame=    0 fps=0.0 q=0.0 size=       0kB time=00:00:00.00 bitrate=N/A   
frame=    0 fps=0.0 q=0.0 size=       0kB time=00:00:00.00 bitrate=N/A   
frame=    0 fps=0.0 q=0.0 size=       0kB time=00:00:00.00 bitrate=N/A   
frame=    0 fps=0.0 q=0.0 size=       0kB time=00:00:00.00 bitrate=N/A   
frame=    0 fps=0.0 q=0.0 size=       0kB time=00:00:00.00 bitrate=N/A   
frame=    0 fps=0.0 q=0.0 size=       0kB time=00:00:00.00 bitrate=N/A   
frame=    0 fps=0.0 q=0.0 size=       0kB time=00:00:00.00 bitrate=N/A   
frame=    0 fps=0.0 q=0.0 size=       0kB time=00:00:00.00 bitrate=N/A   
frame=    0 fps=0.0 q=0.0 size=       0kB time=00:00:00.00 bitrate=N/A   
frame=    0 fps=0.0 q=0.0 size=       0kB time=00:00:00.00 bitrate=N/A   
frame=    0 fps=0.0 q=0.0 size=       0kB time=00:00:00.00 bitrate=N/A   
frame=    0 fps=0.0 q=0.0 size=       0kB time=00:00:00.00 bitrate=N/A   
frame=    0 fps=0.0 q=0.0 size=       0kB time=00:00:00.00 bitrate=N/A   
frame=    0 fps=0.0 q=0.0 size=       0kB time=00:00:00.00 bitrate=N/A   
frame=    0 fps=0.0 q=0.0 size=       0kB time=00:00:00.00 bitrate=N/A   
frame=    0 fps=0.0 q=0.0 size=       0kB time=00:00:00.00 bitrate=N/A   
frame=    0 fps=0.0 q=0.0 size=       0kB time=00:00:00.00 bitrate=N/A   
frame=    0 fps=0.0 q=0.0 size=       0kB time=00:00:00.00 bitrate=N/A   
frame=    0 fps=0.0 q=0.0 size=       0kB time=00:00:00.00 bitrate=N/A   
frame=    0 fps=0.0 q=0.0 size=       0kB time=00:00:00.00 bitrate=N/A   
frame=    0 fps=0.0 q=0.0 size=       0kB time=00:00:00.00 bitrate=N/A   
frame=    0 fps=0.0 q=0.0 size=       0kB time=00:00:00.00 bitrate=N/A   
frame=    0 fps=0.0 q=0.0 size=       0kB time=00:00:00.00 bitrate=N/A   
frame=    0 fps=0.0 q=0.0 size=       0kB time=00:00:00.00 bitrate=N/A   
frame=    0 fps=0.0 q=0.0 size=       0kB time=00:00:00.00 bitrate=N/A   
frame=    0 fps=0.0 q=0.0 size=       0kB time=00:00:00.00 bitrate=N/A   
frame=    0 fps=0.0 q=0.0 size=       0kB time=00:00:00.00 bitrate=N/A   
frame=    0 fps=0.0 q=0.0 size=       0kB time=00:00:00.00 bitrate=N/A   
frame=    0 fps=0.0 q=0.0 size=       0kB time=00:00:00.00 bitrate=N/A   
frame=    0 fps=0.0 q=0.0 size=       0kB time=00:00:00.00 bitrate=N/A   
frame=    0 fps=0.0 q=0.0 size=       0kB time=00:00:00.00 bitrate=N/A   
frame=    0 fps=0.0 q=0.0 size=       0kB time=00:00:00.00 bitrate=N/A   
frame=    0 fps=0.0 q=0.0 size=       0kB time=00:00:00.00 bitrate=N/A   
frame=    0 fps=0.0 q=0.0 size=       0kB time=00:00:00.00 bitrate=N/A   
frame=    0 fps=0.0 q=0.0 size=       0kB time=00:00:00.00 bitrate=N/A   
frame=    0 fps=0.0 q=0.0 size=       0kB time=00:00:00.00 bitrate=N/A   
frame=    0 fps=0.0 q=0.0 size=       0kB time=00:00:00.00 bitrate=N/A   
frame=    0 fps=0.0 q=0.0 size=       0kB time=00:00:00.00 bitrate=N/A   
frame=    0 fps=0.0 q=0.0 size=       0kB time=00:00:00.00 bitrate=N/A   
frame=    0 fps=0.0 q=0.0 size=       0kB time=00:00:00.00 bitrate=N/A   
frame=    0 fps=0.0 q=0.0 size=       0kB time=00:00:00.00 bitrate=N/A   
frame=    0 fps=0.0 q=0.0 size=       0kB time=00:00:00.00 bitrate=N/A   
frame=    0 fps=0.0 q=0.0 size=       0kB time=00:00:00.00 bitrate=N/A   
frame=    0 fps=0.0 q=0.0 size=       0kB time=00:00:00.00 bitrate=N/A   
frame=    0 fps=0.0 q=0.0 size=       0kB time=00:00:00.00 bitrate=N/A   
frame=    0 fps=0.0 q=0.0 size=       0kB time=00:00:00.00 bitrate=N/A   
frame=    0 fps=0.0 q=0.0 size=       0kB time=00:00:00.00 bitrate=N/A   
frame=    0 fps=0.0 q=0.0 size=       0kB time=00:00:00.00 bitrate=N/A   
frame=    0 fps=0.0 q=0.0 size=       0kB time=00:00:00.00 bitrate=N/A   
frame=    0 fps=0.0 q=0.0 size=       0kB time=00:00:00.00 bitrate=N/A   
frame=    0 fps=0.0 q=0.0 size=       0kB time=00:00:00.00 bitrate=N/A   
Copying data in avfilter.
Incoming frame (time:0) from link #0
Incoming frame (time:0) from link #1
n:1.000000 t:0.000000 pos:91992811.000000 x:496.000000 xi:496 y:564.000000 yi:564
Cliping frame in rate conversion by 0.000008
Copying data in avfilter.
Incoming frame (time:0.04) from link #0
n:2.000000 t:0.040000 pos:92102339.000000 x:496.000000 xi:496 y:564.000000 yi:564
Copying data in avfilter.
Incoming frame (time:0.08) from link #0
n:2.000000 t:0.080000 pos:92147624.000000 x:496.000000 xi:496 y:564.000000 yi:564
Copying data in avfilter.
Incoming frame (time:0.12) from link #0
n:3.000000 t:0.120000 pos:92173599.000000 x:496.000000 xi:496 y:564.000000 yi:564
Copying data in avfilter.
Incoming frame (time:0.16) from link #0
n:4.000000 t:0.160000 pos:92209150.000000 x:496.000000 xi:496 y:564.000000 yi:564
Copying data in avfilter.
Incoming frame (time:0.2) from link #0
n:5.000000 t:0.200000 pos:92248289.000000 x:496.000000 xi:496 y:564.000000 yi:564
Copying data in avfilter.
Incoming frame (time:0.24) from link #0
n:6.000000 t:0.240000 pos:92259219.000000 x:496.000000 xi:496 y:564.000000 yi:564
Copying data in avfilter.
Incoming frame (time:0.28) from link #0
n:7.000000 t:0.280000 pos:92325181.000000 x:496.000000 xi:496 y:564.000000 yi:564
frame=    8 fps=0.2 q=0.0 size=       0kB time=00:00:00.41 bitrate=   0.9kbits/s   
Copying data in avfilter.
Incoming frame (time:0.32) from link #0
n:8.000000 t:0.320000 pos:92359430.000000 x:496.000000 xi:496 y:564.000000 yi:564
Copying data in avfilter.
Incoming frame (time:0.36) from link #0
n:9.000000 t:0.360000 pos:92393514.000000 x:496.000000 xi:496 y:564.000000 yi:564
Copying data in avfilter.
Incoming frame (time:0.4) from link #0
n:10.000000 t:0.400000 pos:92421892.000000 x:496.000000 xi:496 y:564.000000 yi:564
Copying data in avfilter.
Incoming frame (time:0.44) from link #0
n:11.000000 t:0.440000 pos:92448984.000000 x:496.000000 xi:496 y:564.000000 yi:564
Copying data in avfilter.
Incoming frame (time:0.48) from link #0
n:12.000000 t:0.480000 pos:92481854.000000 x:496.000000 xi:496 y:564.000000 yi:564
Copying data in avfilter.
Incoming frame (time:0.52) from link #0
n:13.000000 t:0.520000 pos:92514937.000000 x:496.000000 xi:496 y:564.000000 yi:564
Copying data in avfilter.
Incoming frame (time:0.56) from link #0
n:14.000000 t:0.560000 pos:92552365.000000 x:496.000000 xi:496 y:564.000000 yi:564
Copying data in avfilter.
Incoming frame (time:0.6) from link #0
n:15.000000 t:0.600000 pos:92562212.000000 x:496.000000 xi:496 y:564.000000 yi:564
Copying data in avfilter.
Incoming frame (time:0.64) from link #0
n:16.000000 t:0.640000 pos:92599964.000000 x:496.000000 xi:496 y:564.000000 yi:564
Copying data in avfilter.
Incoming frame (time:0.68) from link #0
n:17.000000 t:0.680000 pos:92627708.000000 x:496.000000 xi:496 y:564.000000 yi:564
frame=   18 fps=0.4 q=0.0 size=       0kB time=00:00:00.81 bitrate=   0.5kbits/s   
Copying data in avfilter.
Incoming frame (time:0.72) from link #0
n:18.000000 t:0.720000 pos:92653861.000000 x:496.000000 xi:496 y:564.000000 yi:564
Copying data in avfilter.
Incoming frame (time:0.76) from link #0
n:19.000000 t:0.760000 pos:92686178.000000 x:496.000000 xi:496 y:564.000000 yi:564
Copying data in avfilter.
Incoming frame (time:0.8) from link #0
n:20.000000 t:0.800000 pos:92712543.000000 x:496.000000 xi:496 y:564.000000 yi:564
Copying data in avfilter.
Incoming frame (time:0.84) from link #0
n:21.000000 t:0.840000 pos:92746739.000000 x:496.000000 xi:496 y:564.000000 yi:564
Copying data in avfilter.
Incoming frame (time:0.88) from link #0
n:22.000000 t:0.880000 pos:92775446.000000 x:496.000000 xi:496 y:564.000000 yi:564
Copying data in avfilter.
Incoming frame (time:0.92) from link #0
n:23.000000 t:0.920000 pos:92802408.000000 x:496.000000 xi:496 y:564.000000 yi:564
Copying data in avfilter.
Incoming frame (time:0.96) from link #0
n:24.000000 t:0.960000 pos:92828845.000000 x:496.000000 xi:496 y:564.000000 yi:564
Copying data in avfilter.
Incoming frame (time:1) from link #0
n:25.000000 t:1.000000 pos:92837328.000000 x:496.000000 xi:496 y:564.000000 yi:564
Copying data in avfilter.
Incoming frame (time:1.04) from link #0
n:26.000000 t:1.040000 pos:92879876.000000 x:496.000000 xi:496 y:564.000000 yi:564
Copying data in avfilter.
Incoming frame (time:1.08) from link #0
n:27.000000 t:1.080000 pos:92904206.000000 x:496.000000 xi:496 y:564.000000 yi:564
frame=   28 fps=0.7 q=0.0 size=       0kB time=00:00:01.20 bitrate=   0.3kbits/s   
Copying data in avfilter.
Incoming frame (time:1.12) from link #0
n:28.000000 t:1.120000 pos:92931541.000000 x:496.000000 xi:496 y:564.000000 yi:564
Copying data in avfilter.
Incoming frame (time:1.16) from link #0
n:29.000000 t:1.160000 pos:92957059.000000 x:496.000000 xi:496 y:564.000000 yi:564
Copying data in avfilter.
Incoming frame (time:1.2) from link #0
n:30.000000 t:1.200000 pos:92987389.000000 x:496.000000 xi:496 y:564.000000 yi:564
Copying data in avfilter.
Incoming frame (time:1.24) from link #0
n:31.000000 t:1.240000 pos:92993424.000000 x:496.000000 xi:496 y:564.000000 yi:564
Copying data in avfilter.
Incoming frame (time:1.28) from link #0
n:32.000000 t:1.280000 pos:93029703.000000 x:496.000000 xi:496 y:564.000000 yi:564
Copying data in avfilter.
Incoming frame (time:1.32) from link #0
n:33.000000 t:1.320000 pos:93052786.000000 x:496.000000 xi:496 y:564.000000 yi:564
Copying data in avfilter.
Incoming frame (time:1.36) from link #0
n:34.000000 t:1.360000 pos:93078518.000000 x:496.000000 xi:496 y:564.000000 yi:564
Copying data in avfilter.
Incoming frame (time:1.4) from link #0
n:35.000000 t:1.400000 pos:93101025.000000 x:496.000000 xi:496 y:564.000000 yi:564
Copying data in avfilter.
Incoming frame (time:1.44) from link #0
n:36.000000 t:1.440000 pos:93124221.000000 x:496.000000 xi:496 y:564.000000 yi:564
Copying data in avfilter.
Incoming frame (time:1.48) from link #0
n:37.000000 t:1.480000 pos:93146153.000000 x:496.000000 xi:496 y:564.000000 yi:564
frame=   38 fps=0.9 q=0.0 size=       0kB time=00:00:01.60 bitrate=   0.2kbits/s   
Copying data in avfilter.
Incoming frame (time:1.52) from link #0
n:38.000000 t:1.520000 pos:93167935.000000 x:496.000000 xi:496 y:564.000000 yi:564
Copying data in avfilter.
Incoming frame (time:1.56) from link #0
n:39.000000 t:1.560000 pos:93196392.000000 x:496.000000 xi:496 y:564.000000 yi:564
Copying data in avfilter.
Incoming frame (time:1.6) from link #0
n:40.000000 t:1.600000 pos:93202639.000000 x:496.000000 xi:496 y:564.000000 yi:564
Copying data in avfilter.
Incoming frame (time:1.64) from link #0
n:41.000000 t:1.640000 pos:93228885.000000 x:496.000000 xi:496 y:564.000000 yi:564
Copying data in avfilter.
Incoming frame (time:1.68) from link #0
n:42.000000 t:1.680000 pos:93258458.000000 x:496.000000 xi:496 y:564.000000 yi:564
Copying data in avfilter.
Incoming frame (time:1.72) from link #0
n:43.000000 t:1.720000 pos:93278116.000000 x:496.000000 xi:496 y:564.000000 yi:564
Copying data in avfilter.
Incoming frame (time:1.76) from link #0
n:44.000000 t:1.760000 pos:93299742.000000 x:496.000000 xi:496 y:564.000000 yi:564
Copying data in avfilter.
Incoming frame (time:1.8) from link #0
n:45.000000 t:1.800000 pos:93327841.000000 x:496.000000 xi:496 y:564.000000 yi:564
frame=   46 fps=1.0 q=0.0 size=       0kB time=00:00:01.95 bitrate=   0.2kbits/s   
Copying data in avfilter.
Incoming frame (time:1.84) from link #0
n:46.000000 t:1.840000 pos:93353962.000000 x:496.000000 xi:496 y:564.000000 yi:564
Copying data in avfilter.
Incoming frame (time:1.88) from link #0
n:47.000000 t:1.880000 pos:93369940.000000 x:496.000000 xi:496 y:564.000000 yi:564
Copying data in avfilter.
Incoming frame (time:1.92) from link #0
n:48.000000 t:1.920000 pos:93388108.000000 x:496.000000 xi:496 y:564.000000 yi:564
Copying data in avfilter.
Incoming frame (time:1.96) from link #0
n:49.000000 t:1.960000 pos:93429842.000000 x:496.000000 xi:496 y:564.000000 yi:564
frame=   50 fps=1.1 q=0.0 size=       0kB time=00:00:02.11 bitrate=   0.2kbits/s   
Copying data in avfilter.
Incoming frame (time:2) from link #0
n:50.000000 t:2.000000 pos:93434200.000000 x:496.000000 xi:496 y:564.000000 yi:564
Copying data in avfilter.
Incoming frame (time:2.04) from link #0
n:51.000000 t:2.040000 pos:93541068.000000 x:496.000000 xi:496 y:564.000000 yi:564
Copying data in avfilter.
Incoming frame (time:2.08) from link #0
n:52.000000 t:2.080000 pos:93585853.000000 x:496.000000 xi:496 y:564.000000 yi:564
Copying data in avfilter.
Incoming frame (time:2.12) from link #0
n:53.000000 t:2.120000 pos:93613726.000000 x:496.000000 xi:496 y:564.000000 yi:564
frame=   54 fps=1.2 q=0.0 size=       0kB time=00:00:02.25 bitrate=   0.2kbits/s   
Copying data in avfilter.
Incoming frame (time:2.16) from link #0
n:54.000000 t:2.160000 pos:93644212.000000 x:496.000000 xi:496 y:564.000000 yi:564
Copying data in avfilter.
Incoming frame (time:2.2) from link #0
n:55.000000 t:2.200000 pos:93683622.000000 x:496.000000 xi:496 y:564.000000 yi:564
Copying data in avfilter.
Incoming frame (time:2.24) from link #0
n:56.000000 t:2.240000 pos:93693279.000000 x:496.000000 xi:496 y:564.000000 yi:564
frame=   0 QP=20.92 NAL=3 Slice:I Poc:0   I:3600 P:0    SKIP:0    size=69511 bytes
Copying data in avfilter.
Incoming frame (time:2.28) from link #0
n:57.000000 t:2.280000 pos:93755601.000000 x:496.000000 xi:496 y:564.000000 yi:564
frame=   1 QP=22.16 NAL=2 Slice Poc:6   I:355  P:2364 SKIP:881  size=22495 bytes
frame=   58 fps=1.2 q=28.0 size=      91kB time=00:00:02.41 bitrate= 307.2kbits/s   
Copying data in avfilter.
Incoming frame (time:2.32) from link #0
n:58.000000 t:2.320000 pos:93784569.000000 x:496.000000 xi:496 y:564.000000 yi:564
frame=   2 QP=26.26 NAL=2 Slice:B Poc:4   I:18   P:1357 SKIP:2189 size=3731 bytes
Copying data in avfilter.
Incoming frame (time:2.36) from link #0
n:59.000000 t:2.360000 pos:93826065.000000 x:496.000000 xi:496 y:564.000000 yi:564
frame=   3 QP=24.52 NAL=0 Slice:B Poc:2   I:29   P:1657 SKIP:1898 size=3537 bytes
frame=   60 fps=1.2 q=28.0 size=      99kB time=00:00:02.50 bitrate= 323.4kbits/s   
Copying data in avfilter.
Incoming frame (time:2.4) from link #0
n:60.000000 t:2.400000 pos:93851533.000000 x:496.000000 xi:496 y:564.000000 yi:564
frame=   4 QP=21.21 NAL=2 Slice Poc:8   I:657  P:2225 SKIP:718  size=24373 bytes
frame=   61 fps=1.2 q=28.0 size=     124kB time=00:00:02.53 bitrate= 400.3kbits/s   
Copying data in avfilter.
Incoming frame (time:2.44) from link #0
n:61.000000 t:2.440000 pos:93877902.000000 x:496.000000 xi:496 y:564.000000 yi:564
frame=   5 QP=20.83 NAL=2 Slice Poc:10  I:97   P:765  SKIP:2738 size=3119 bytes
Copying data in avfilter.
Incoming frame (time:2.48) from link #0
n:62.000000 t:2.480000 pos:93915490.000000 x:496.000000 xi:496 y:564.000000 yi:564
frame=   6 QP=21.52 NAL=2 Slice Poc:16  I:655  P:2391 SKIP:554  size=26000 bytes
frame=   63 fps=1.2 q=28.0 size=     153kB time=00:00:02.62 bitrate= 478.9kbits/s   
Copying data in avfilter.
Incoming frame (time:2.52) from link #0
n:63.000000 t:2.520000 pos:93944455.000000 x:496.000000 xi:496 y:564.000000 yi:564
frame=   7 QP=24.43 NAL=2 Slice:B Poc:14  I:63   P:1804 SKIP:1689 size=5222 bytes
Copying data in avfilter.
Incoming frame (time:2.56) from link #0
n:64.000000 t:2.560000 pos:93983398.000000 x:496.000000 xi:496 y:564.000000 yi:564
frame=   8 QP=24.82 NAL=0 Slice:B Poc:12  I:44   P:1777 SKIP:1703 size=6526 bytes
frame=   65 fps=1.3 q=28.0 size=     167kB time=00:00:02.71 bitrate= 502.2kbits/s   
Copying data in avfilter.
Incoming frame (time:2.6) from link #0
n:65.000000 t:2.600000 pos:94000643.000000 x:496.000000 xi:496 y:564.000000 yi:564
frame=   9 QP=21.11 NAL=2 Slice Poc:22  I:683  P:2332 SKIP:585  size=27173 bytes
Copying data in avfilter.
Incoming frame (time:2.64) from link #0
n:66.000000 t:2.640000 pos:94024126.000000 x:496.000000 xi:496 y:564.000000 yi:564
frame=  10 QP=24.12 NAL=2 Slice:B Poc:20  I:74   P:1652 SKIP:1819 size=5049 bytes
Copying data in avfilter.
Incoming frame (time:2.68) from link #0
n:67.000000 t:2.680000 pos:94058557.000000 x:496.000000 xi:496 y:564.000000 yi:564
frame=  11 QP=24.42 NAL=0 Slice:B Poc:18  I:39   P:1691 SKIP:1805 size=5103 bytes
frame=   68 fps=1.3 q=28.0 size=     205kB time=00:00:02.80 bitrate= 597.6kbits/s   
Copying data in avfilter.
Incoming frame (time:2.72) from link #0
n:68.000000 t:2.720000 pos:94086984.000000 x:496.000000 xi:496 y:564.000000 yi:564
frame=  12 QP=21.10 NAL=2 Slice Poc:28  I:740  P:2334 SKIP:526  size=28032 bytes
Copying data in avfilter.
Incoming frame (time:2.76) from link #0
n:69.000000 t:2.760000 pos:94116392.000000 x:496.000000 xi:496 y:564.000000 yi:564
frame=  13 QP=19.97 NAL=2 Slice:B Poc:26  I:16   P:637  SKIP:2947 size=1067 bytes
frame=   70 fps=1.3 q=28.0 size=     234kB time=00:00:02.90 bitrate= 661.7kbits/s   
Copying data in avfilter.
Incoming frame (time:2.8) from link #0
n:70.000000 t:2.800000 pos:94142801.000000 x:496.000000 xi:496 y:564.000000 yi:564
frame=  14 QP=24.68 NAL=0 Slice:B Poc:24  I:48   P:2262 SKIP:1237 size=7215 bytes
Copying data in avfilter.
Incoming frame (time:2.84) from link #0
n:71.000000 t:2.840000 pos:94178816.000000 x:496.000000 xi:496 y:564.000000 yi:564
frame=  15 QP=21.31 NAL=2 Slice Poc:34  I:443  P:2338 SKIP:819  size=25776 bytes
frame=   72 fps=1.3 q=28.0 size=     268kB time=00:00:02.97 bitrate= 739.0kbits/s   
Copying data in avfilter.
Incoming frame (time:2.88) from link #0
n:72.000000 t:2.880000 pos:94200055.000000 x:496.000000 xi:496 y:564.000000 yi:564
frame=  16 QP=24.50 NAL=2 Slice:B Poc:32  I:14   P:1442 SKIP:2083 size=5378 bytes
Copying data in avfilter.
Incoming frame (time:2.92) from link #0
n:73.000000 t:2.920000 pos:94229768.000000 x:496.000000 xi:496 y:564.000000 yi:564
frame=  17 QP=24.28 NAL=0 Slice:B Poc:30  I:13   P:1750 SKIP:1816 size=3882 bytes
frame=   74 fps=1.4 q=28.0 size=     278kB time=00:00:03.06 bitrate= 743.8kbits/s   
Copying data in avfilter.
Incoming frame (time:2.96) from link #0
n:74.000000 t:2.960000 pos:94253029.000000 x:496.000000 xi:496 y:564.000000 yi:564
frame=  18 QP=20.86 NAL=2 Slice Poc:40  I:655  P:2305 SKIP:640  size=29943 bytes
frame=   75 fps=1.3 q=28.0 size=     308kB time=00:00:03.08 bitrate= 817.7kbits/s   
Copying data in avfilter.
Incoming frame (time:3) from link #0
n:75.000000 t:3.000000 pos:94263486.000000 x:496.000000 xi:496 y:564.000000 yi:564
frame=  19 QP=24.31 NAL=2 Slice:B Poc:38  I:58   P:1795 SKIP:1653 size=7699 bytes
Copying data in avfilter.
Incoming frame (time:3.04) from link #0
n:76.000000 t:3.040000 pos:94302153.000000 x:496.000000 xi:496 y:564.000000 yi:564
frame=  20 QP=24.43 NAL=0 Slice:B Poc:36  I:18   P:1574 SKIP:1969 size=3787 bytes
frame=   77 fps=1.4 q=28.0 size=     321kB time=00:00:03.18 bitrate= 826.4kbits/s   
Copying data in avfilter.
Incoming frame (time:3.08) from link #0
n:77.000000 t:3.080000 pos:94326587.000000 x:496.000000 xi:496 y:564.000000 yi:564
frame=  21 QP=20.51 NAL=2 Slice Poc:46  I:548  P:2401 SKIP:651  size=30017 bytes
Copying data in avfilter.
Incoming frame (time:3.12) from link #0
n:78.000000 t:3.120000 pos:94352392.000000 x:496.000000 xi:496 y:564.000000 yi:564
frame=  22 QP=24.65 NAL=2 Slice:B Poc:44  I:33   P:1526 SKIP:1989 size=5530 bytes
frame=   79 fps=1.4 q=28.0 size=     357kB time=00:00:03.25 bitrate= 898.8kbits/s   
Copying data in avfilter.
Incoming frame (time:3.16) from link #0
n:79.000000 t:3.160000 pos:94374933.000000 x:496.000000 xi:496 y:564.000000 yi:564
frame=  23 QP=23.29 NAL=0 Slice:B Poc:42  I:31   P:1735 SKIP:1784 size=4894 bytes
Copying data in avfilter.
Incoming frame (time:3.2) from link #0
n:80.000000 t:3.200000 pos:94405637.000000 x:496.000000 xi:496 y:564.000000 yi:564
frame=  24 QP=20.73 NAL=2 Slice Poc:48  I:34   P:764  SKIP:2802 size=2780 bytes
frame=   81 fps=1.4 q=28.0 size=     365kB time=00:00:03.34 bitrate= 894.6kbits/s   
Copying data in avfilter.
Incoming frame (time:3.24) from link #0
n:81.000000 t:3.240000 pos:94418823.000000 x:496.000000 xi:496 y:564.000000 yi:564
frame=  25 QP=20.39 NAL=2 Slice:P Poc:54  I:635  P:2341 SKIP:624  size=27599 bytes
Copying data in avfilter.
Incoming frame (time:3.28) from link #0
n:82.000000 t:3.280000 pos:94443984.000000 x:496.000000 xi:496 y:564.000000 yi:564
frame=  26 QP=23.99 NAL=2 Slice:B Poc:52  I:21   P:1481 SKIP:2076 size=3842 bytes
frame=   83 fps=1.4 q=28.0 size=     397kB time=00:00:03.41 bitrate= 953.5kbits/s   
Copying data in avfilter.
Incoming frame (time:3.32) from link #0
n:83.000000 t:3.320000 pos:94464647.000000 x:496.000000 xi:496 y:564.000000 yi:564
frame=  27 QP=24.71 NAL=0 Slice:B Poc:50  I:27   P:1841 SKIP:1663 size=6225 bytes
Copying data in avfilter.
Incoming frame (time:3.36) from link #0
n:84.000000 t:3.360000 pos:94492082.000000 x:496.000000 xi:496 y:564.000000 yi:564
frame=  28 QP=20.74 NAL=2 Slice:P Poc:62  I:414  P:2342 SKIP:844  size=25197 bytes
Copying data in avfilter.
Incoming frame (time:3.4) from link #0
n:85.000000 t:3.400000 pos:94509898.000000 x:496.000000 xi:496 y:564.000000 yi:564
frame=  29 QP=22.65 NAL=2 Slice:B Poc:58  I:28   P:1783 SKIP:1695 size=8581 bytes
frame=   86 fps=1.5 q=28.0 size=     438kB time=00:00:03.52 bitrate=1016.9kbits/s   
Copying data in avfilter.
Incoming frame (time:3.44) from link #0
n:86.000000 t:3.440000 pos:94530683.000000 x:496.000000 xi:496 y:564.000000 yi:564
frame=  30 QP=24.36 NAL=0 Slice:B Poc:56  I:15   P:1547 SKIP:2012 size=3929 bytes
Copying data in avfilter.
Incoming frame (time:3.48) from link #0
n:87.000000 t:3.480000 pos:94558875.000000 x:496.000000 xi:496 y:564.000000 yi:564
frame=  31 QP=19.84 NAL=0 Slice:B Poc:60  I:7    P:675  SKIP:2918 size=894 bytes
Copying data in avfilter.
Incoming frame (time:3.52) from link #0
n:88.000000 t:3.520000 pos:94576730.000000 x:496.000000 xi:496 y:564.000000 yi:564
frame=  32 QP=20.47 NAL=2 Slice:P Poc:68  I:556  P:2310 SKIP:734  size=26152 bytes
frame=   89 fps=1.5 q=28.0 size=     470kB time=00:00:03.66 bitrate=1049.7kbits/s   
Copying data in avfilter.
Incoming frame (time:3.56) from link #0
n:89.000000 t:3.560000 pos:94601833.000000 x:496.000000 xi:496 y:564.000000 yi:564
frame=  33 QP=24.14 NAL=2 Slice:B Poc:66  I:27   P:1597 SKIP:1926 size=4751 bytes
Copying data in avfilter.
Incoming frame (time:3.6) from link #0
n:90.000000 t:3.600000 pos:94618519.000000 x:496.000000 xi:496 y:564.000000 yi:564
frame=  34 QP=24.13 NAL=0 Slice:B Poc:64  I:28   P:1476 SKIP:2061 size=4801 bytes
frame=   91 fps=1.5 q=28.0 size=     481kB time=00:00:03.73 bitrate=1053.6kbits/s   
Copying data in avfilter.
Incoming frame (time:3.64) from link #0
n:91.000000 t:3.640000 pos:94644318.000000 x:496.000000 xi:496 y:564.000000 yi:564
frame=  35 QP=20.50 NAL=2 Slice:P Poc:74  I:427  P:2433 SKIP:740  size=25212 bytes
frame=   92 fps=1.5 q=28.0 size=     506kB time=00:00:03.78 bitrate=1094.7kbits/s   
Copying data in avfilter.
Incoming frame (time:3.68) from link #0
n:92.000000 t:3.680000 pos:94668042.000000 x:496.000000 xi:496 y:564.000000 yi:564
frame=  36 QP=24.37 NAL=2 Slice:B Poc:72  I:21   P:1383 SKIP:2166 size=3908 bytes
Copying data in avfilter.
Incoming frame (time:3.72) from link #0
n:93.000000 t:3.720000 pos:94693122.000000 x:496.000000 xi:496 y:564.000000 yi:564
frame=  37 QP=24.61 NAL=0 Slice:B Poc:70  I:32   P:1839 SKIP:1675 size=5308 bytes
frame=   94 fps=1.5 q=28.0 size=     516kB time=00:00:03.83 bitrate=1103.5kbits/s   
Copying data in avfilter.
Incoming frame (time:3.76) from link #0
n:94.000000 t:3.760000 pos:94717670.000000 x:496.000000 xi:496 y:564.000000 yi:564
frame=  38 QP=20.25 NAL=2 Slice:P Poc:76  I:242  P:1986 SKIP:1372 size=19506 bytes
Copying data in avfilter.
Incoming frame (time:3.8) from link #0
n:95.000000 t:3.800000 pos:94739076.000000 x:496.000000 xi:496 y:564.000000 yi:564
frame=  39 QP=20.81 NAL=2 Slice:P Poc:84  I:318  P:2176 SKIP:1106 size=21617 bytes
frame=   96 fps=1.5 q=28.0 size=     557kB time=00:00:03.92 bitrate=1163.3kbits/s   
Copying data in avfilter.
Incoming frame (time:3.84) from link #0
n:96.000000 t:3.840000 pos:94766855.000000 x:496.000000 xi:496 y:564.000000 yi:564
frame=  40 QP=23.38 NAL=2 Slice:B Poc:80  I:14   P:1431 SKIP:2146 size=3349 bytes
frame=   97 fps=1.5 q=28.0 size=     561kB time=00:00:03.97 bitrate=1157.7kbits/s   
Copying data in avfilter.
Incoming frame (time:3.88) from link #0
n:97.000000 t:3.880000 pos:94786189.000000 x:496.000000 xi:496 y:564.000000 yi:564
frame=  41 QP=21.75 NAL=0 Slice:B Poc:78  I:2    P:717  SKIP:2881 size=681 bytes
Copying data in avfilter.
Incoming frame (time:3.92) from link #0
n:98.000000 t:3.920000 pos:94806635.000000 x:496.000000 xi:496 y:564.000000 yi:564
frame=  42 QP=24.83 NAL=0 Slice:B Poc:82  I:15   P:1347 SKIP:2200 size=3415 bytes
Copying data in avfilter.
Incoming frame (time:3.96) from link #0
n:99.000000 t:3.960000 pos:94825724.000000 x:496.000000 xi:496 y:564.000000 yi:564
frame=  43 QP=20.32 NAL=2 Slice:P Poc:90  I:536  P:2339 SKIP:725  size=25078 bytes
Copying data in avfilter.
Incoming frame (time:4) from link #0
n:100.000000 t:4.000000 pos:94834536.000000 x:496.000000 xi:496 y:564.000000 yi:564
frame=  44 QP=24.42 NAL=2 Slice:B Poc:88  I:14   P:1422 SKIP:2128 size=3663 bytes
frame=  101 fps=1.6 q=28.0 size=     596kB time=00:00:04.13 bitrate=1180.6kbits/s   
Copying data in avfilter.
Incoming frame (time:4.04) from link #0
n:101.000000 t:4.040000 pos:94952286.000000 x:496.000000 xi:496 y:564.000000 yi:564
frame=  45 QP=23.75 NAL=0 Slice:B Poc:86  I:10   P:1565 SKIP:2007 size=3467 bytes
Copying data in avfilter.
Incoming frame (time:4.08) from link #0
n:102.000000 t:4.080000 pos:95018917.000000 x:496.000000 xi:496 y:564.000000 yi:564
frame=  46 QP=21.39 NAL=2 Slice:P Poc:98  I:606  P:2060 SKIP:934  size=28963 bytes
frame=  103 fps=1.6 q=28.0 size=     628kB time=00:00:04.22 bitrate=1218.1kbits/s   
Copying data in avfilter.
Incoming frame (time:4.12) from link #0
n:103.000000 t:4.120000 pos:95038604.000000 x:496.000000 xi:496 y:564.000000 yi:564
frame=  47 QP=22.80 NAL=2 Slice:B Poc:94  I:20   P:1556 SKIP:1962 size=5109 bytes
Copying data in avfilter.
Incoming frame (time:4.16) from link #0
n:104.000000 t:4.160000 pos:95073942.000000 x:496.000000 xi:496 y:564.000000 yi:564
frame=  48 QP=24.10 NAL=0 Slice:B Poc:92  I:6    P:1102 SKIP:2464 size=2516 bytes
Copying data in avfilter.
Incoming frame (time:4.2) from link #0
n:105.000000 t:4.200000 pos:95113542.000000 x:496.000000 xi:496 y:564.000000 yi:564
frame=  49 QP=18.94 NAL=0 Slice:B Poc:96  I:5    P:761  SKIP:2832 size=755 bytes
frame=  106 fps=1.6 q=28.0 size=     638kB time=00:00:04.34 bitrate=1204.1kbits/s   
Copying data in avfilter.
Incoming frame (time:4.24) from link #0
n:106.000000 t:4.240000 pos:95131216.000000 x:496.000000 xi:496 y:564.000000 yi:564
frame=  50 QP=19.95 NAL=2 Slice:P Poc:104 I:851  P:2285 SKIP:464  size=30198 bytes
frame=  107 fps=1.6 q=28.0 size=     668kB time=00:00:04.38 bitrate=1247.7kbits/s   
Copying data in avfilter.
Incoming frame (time:4.28) from link #0
n:107.000000 t:4.280000 pos:95165477.000000 x:496.000000 xi:496 y:564.000000 yi:564
frame=  51 QP=23.84 NAL=2 Slice:B Poc:102 I:19   P:1154 SKIP:2390 size=3453 bytes
Copying data in avfilter.
Incoming frame (time:4.32) from link #0
n:108.000000 t:4.320000 pos:95195891.000000 x:496.000000 xi:496 y:564.000000 yi:564
frame=  52 QP=23.08 NAL=0 Slice:B Poc:100 I:64   P:1702 SKIP:1773 size=5108 bytes
frame=  109 fps=1.6 q=28.0 size=     678kB time=00:00:04.45 bitrate=1246.1kbits/s   
Copying data in avfilter.
Incoming frame (time:4.36) from link #0
n:109.000000 t:4.360000 pos:95229870.000000 x:496.000000 xi:496 y:564.000000 yi:564
frame=  53 QP=20.95 NAL=2 Slice:P Poc:112 I:393  P:2395 SKIP:812  size=22607 bytes
Copying data in avfilter.
Incoming frame (time:4.4) from link #0
n:110.000000 t:4.400000 pos:95262855.000000 x:496.000000 xi:496 y:564.000000 yi:564
frame=  54 QP=22.28 NAL=2 Slice:B Poc:108 I:32   P:1741 SKIP:1764 size=6977 bytes
frame=  111 fps=1.6 q=28.0 size=     708kB time=00:00:04.55 bitrate=1274.6kbits/s   
Copying data in avfilter.
Incoming frame (time:4.44) from link #0
n:111.000000 t:4.440000 pos:95295827.000000 x:496.000000 xi:496 y:564.000000 yi:564
frame=  55 QP=23.84 NAL=0 Slice:B Poc:106 I:11   P:1317 SKIP:2250 size=2827 bytes
Copying data in avfilter.
Incoming frame (time:4.48) from link #0
n:112.000000 t:4.480000 pos:95332036.000000 x:496.000000 xi:496 y:564.000000 yi:564
frame=  56 QP=20.66 NAL=0 Slice:B Poc:110 I:1    P:845  SKIP:2754 size=870 bytes
Copying data in avfilter.
Incoming frame (time:4.52) from link #0
n:113.000000 t:4.520000 pos:95351371.000000 x:496.000000 xi:496 y:564.000000 yi:564
frame=  57 QP=21.09 NAL=2 Slice:P Poc:114 I:99   P:1610 SKIP:1891 size=8769 bytes
frame=  114 fps=1.6 q=28.0 size=     722kB time=00:00:04.66 bitrate=1267.2kbits/s   
Copying data in avfilter.
Incoming frame (time:4.56) from link #0
n:114.000000 t:4.560000 pos:95381547.000000 x:496.000000 xi:496 y:564.000000 yi:564
回复 支持 反对

使用道具 举报

 楼主| 发表于 2016-10-17 13:21:14 | 显示全部楼层
从一个7分钟的视频 截45秒 半小时都没有搞完
回复 支持 反对

使用道具 举报

发表于 2016-10-17 13:53:28 | 显示全部楼层
换3.1.4版本ffmpeg
回复 支持 反对

使用道具 举报

您需要登录后才可以回帖 登录 | 立即注册

本版积分规则

手机版|Archiver|ChinaFFmpeg

GMT+8, 2022-9-26 10:07 , Processed in 0.049453 second(s), 14 queries .

Powered by Discuz! X3.4

Copyright © 2001-2021, Tencent Cloud.

快速回复 返回顶部 返回列表