请选择 进入手机版 | 继续访问电脑版
设为首页收藏本站
开启辅助访问
切换到宽版

ChinaFFmpeg

 找回密码
 立即注册

QQ登录

只需一步,快速开始

用新浪微博登录

只需一步,快速搞定

搜索
热搜: 活动 交友 discuz
查看: 137|回复: 5

[Windows] 新人。FFMPEG 输出AAC-HE 命令怎么写?

[复制链接]
扫一扫,手机访问本帖
发表于 2019-11-18 00:46:21 | 显示全部楼层 |阅读模式
谁能给说说?

输出aac倒是可以,但是怎么才能输出AAC-HE呢?找了几个网上的经验的回来试,有的看不明白。有的是搞开发的。有的执行通不过。

多谢。
回复

使用道具 举报

发表于 2019-11-18 11:15:16 | 显示全部楼层
[AppleScript] 纯文本查看 复制代码
ffmpeg -i input.wav -c:a libfdk_aac -profile:a aac_he_v2 -b:a 32k output.m4a
回复 支持 反对

使用道具 举报

 楼主| 发表于 2019-11-18 17:42:35 | 显示全部楼层
非常感谢您的回应,但是我这里执行失败。说是没这个encoder

ffmpeg -i xx.MP4  -c:a libfdk_aac -profile:a aac_he_v2 -b:a 32k output.m4a
ffmpeg version N-90173-gfa0c9d69d3 Copyright (c) 2000-2018 the FFmpeg developers
  built with gcc 7.3.0 (GCC)
  configuration: --enable-gpl --enable-version3 --enable-sdl2 --enable-bzlib --enable-fontconfig --enable-gnutls --enable-iconv --enable-libass --enable-libbluray --enable-libfreetype --enable-libmp3lame --enable-libopencore-amrnb --enable-libopencore-amrwb --enable-libopenjpeg --enable-libopus --enable-libshine --enable-libsnappy --enable-libsoxr --enable-libtheora --enable-libtwolame --enable-libvpx --enable-libwavpack --enable-libwebp --enable-libx264 --enable-libx265 --enable-libxml2 --enable-libzimg --enable-lzma --enable-zlib --enable-gmp --enable-libvidstab --enable-libvorbis --enable-libvo-amrwbenc --enable-libmysofa --enable-libspeex --enable-libxvid --enable-libmfx --enable-amf --enable-cuda --enable-cuvid --enable-d3d11va --enable-nvenc --enable-dxva2 --enable-avisynth
  libavutil      56.  7.101 / 56.  7.101
  libavcodec     58. 13.100 / 58. 13.100
  libavformat    58. 10.100 / 58. 10.100
  libavdevice    58.  2.100 / 58.  2.100
  libavfilter     7. 12.100 /  7. 12.100
  libswscale      5.  0.101 /  5.  0.101
  libswresample   3.  0.101 /  3.  0.101
  libpostproc    55.  0.100 / 55.  0.100
Input #0, mov,mp4,m4a,3gp,3g2,mj2, from 'xx.MP4':
  Metadata:
    major_brand     : isom
    minor_version   : 512
    compatible_brands: isomiso2avc1mp41
    encoder         : ShanaEncoder
  Duration: 00:03:01.46, start: 0.000000, bitrate: 1277 kb/s
    Stream #0:0(und): Video: h264 (Constrained Baseline) (avc1 / 0x31637661), yuv420p, 1280x720 [SAR 1:1 DAR 16:9], 1146 kb/s, 25 fps, 25.03 tbr, 10012 tbn, 50.06 tbc (default)
    Metadata:
      handler_name    : VideoHandler
    Stream #0:1(und): Audio: aac (HE-AAC) (mp4a / 0x6134706D), 48000 Hz, stereo, fltp, 128 kb/s (default)
    Metadata:
      handler_name    : SoundHandler

Unknown encoder 'libfdk_aac'

这个怎么解决?
回复 支持 反对

使用道具 举报

 楼主| 发表于 2019-11-18 17:49:01 | 显示全部楼层
升级了最新版,仍然如此。

>ffmpeg -i xx.MP4  -c:a libfdk_aac -profile:a aac_he_v2 -b:a 32k output.m4a
ffmpeg version git-2019-11-17-b741a84 Copyright (c) 2000-2019 the FFmpeg developers
  built with gcc 9.2.1 (GCC) 20191010
  configuration: --enable-gpl --enable-version3 --enable-sdl2 --enable-fontconfig --enable-gnutls --enable-iconv --enable-libass --enable-libdav1d --enable-libbluray --enable-libfreetype --enable-libmp3lame --enable-libopencore-amrnb --enable-libopencore-amrwb --enable-libopenjpeg --enable-libopus --enable-libshine --enable-libsnappy --enable-libsoxr --enable-libtheora --enable-libtwolame --enable-libvpx --enable-libwavpack --enable-libwebp --enable-libx264 --enable-libx265 --enable-libxml2 --enable-libzimg --enable-lzma --enable-zlib --enable-gmp --enable-libvidstab --enable-libvorbis --enable-libvo-amrwbenc --enable-libmysofa --enable-libspeex --enable-libxvid --enable-libaom --enable-libmfx --enable-ffnvcodec --enable-cuvid --enable-d3d11va --enable-nvenc --enable-nvdec --enable-dxva2 --enable-avisynth --enable-libopenmpt --enable-amf
  libavutil      56. 36.100 / 56. 36.100
  libavcodec     58. 62.100 / 58. 62.100
  libavformat    58. 35.100 / 58. 35.100
  libavdevice    58.  9.100 / 58.  9.100
  libavfilter     7. 66.100 /  7. 66.100
  libswscale      5.  6.100 /  5.  6.100
  libswresample   3.  6.100 /  3.  6.100
  libpostproc    55.  6.100 / 55.  6.100
Input #0, mov,mp4,m4a,3gp,3g2,mj2, from 'xx.MP4':
  Metadata:
    major_brand     : isom
    minor_version   : 512
    compatible_brands: isomiso2avc1mp41
    encoder         : ShanaEncoder
  Duration: 00:03:01.46, start: 0.000000, bitrate: 1277 kb/s
    Stream #0:0(und): Video: h264 (Constrained Baseline) (avc1 / 0x31637661), yuv420p, 1280x720 [SAR 1:1 DAR 16:9], 1146 kb/s, 25 fps, 25.03 tbr, 10012 tbn, 50.06 tbc (default)
    Metadata:
      handler_name    : VideoHandler
    Stream #0:1(und): Audio: aac (HE-AAC) (mp4a / 0x6134706D), 48000 Hz, stereo, fltp, 128 kb/s (default)
    Metadata:
      handler_name    : SoundHandler

Unknown encoder 'libfdk_aac'
回复 支持 反对

使用道具 举报

发表于 2019-11-19 18:22:20 | 显示全部楼层
最好自己编译一个带libfdkaac的ffmpeg
回复 支持 反对

使用道具 举报

 楼主| 发表于 2019-11-25 22:44:22 | 显示全部楼层
孙悟空 发表于 2019-11-19 18:22
最好自己编译一个带libfdkaac的ffmpeg

不会,这个对我太难了。 谢谢回复
回复 支持 反对

使用道具 举报

您需要登录后才可以回帖 登录 | 立即注册

本版积分规则

手机版|Archiver|ChinaFFmpeg    

GMT+8, 2019-12-10 19:37 , Processed in 0.027278 second(s), 19 queries .

Powered by ChinaFFmpeg

© 2013 - 2018 www.chinaffmpeg.com

快速回复 返回顶部 返回列表