请选择 进入手机版 | 继续访问电脑版

ChinaFFmpeg

 找回密码
 立即注册

QQ登录

只需一步,快速开始

查看: 9962|回复: 4

【求助】ffmpeg中avfilter用法问题。

[复制链接]
发表于 2013-9-30 16:02:58 | 显示全部楼层 |阅读模式
本帖最后由 洛月 于 2013-9-30 16:10 编辑

这一块好像是新东西
ffmpeg推荐来替代SwsContext的
一些简单的介绍可参见下面的链接
http://blog.csdn.net/fireroll/article/details/8607954
http://www.cnblogs.com/nlsoft/archive/2013/05/08/3066116.html

求了解的大大们 讲解下
或者分享一个例子(最好是加PNG logo的例子)
谢谢
回复

使用道具 举报

 楼主| 发表于 2013-9-30 16:39:16 | 显示全部楼层
貌似问了个 比较难搞的问题
哎。。。
过2天 再来看看。。。
回复 支持 反对

使用道具 举报

发表于 2013-10-1 20:41:19 | 显示全部楼层

  1. [StevenLiu@liudeMacBook-Pro Movies]$ ffmpeg -y -ss 00:00:00.01 -i yedian.avi  -vf 'movie=/Users/StevenLiu/Pictures/IMG_0432.PNG,crop=640:20:0:0 [f];[in][f] overlay=0:0 [out]' -strict -2  -t 20 output.avi
  2. ffmpeg version N-56530-g29f244e Copyright (c) 2000-2013 the FFmpeg developers
  3.   built on Sep 21 2013 16:41:16 with llvm-gcc 4.2.1 (LLVM build 2336.11.00)
  4.   configuration: --enable-ffplay --enable-libmp3lame --enable-libx264 --enable-gpl
  5.   libavutil      52. 45.100 / 52. 45.100
  6.   libavcodec     55. 33.100 / 55. 33.100
  7.   libavformat    55. 18.102 / 55. 18.102
  8.   libavdevice    55.  3.100 / 55.  3.100
  9.   libavfilter     3. 86.102 /  3. 86.102
  10.   libswscale      2.  5.100 /  2.  5.100
  11.   libswresample   0. 17.103 /  0. 17.103
  12.   libpostproc    52.  3.100 / 52.  3.100
  13. Input #0, avi, from 'yedian.avi':
  14.   Metadata:
  15.     encoder         : VirtualDubMod 1.5.10.2 (build 2540/release)
  16.   Duration: 01:30:10.25, start: 0.000000, bitrate: 1086 kb/s
  17.     Stream #0:0: Video: mpeg4 (Advanced Simple Profile) (XVID / 0x44495658), yuv420p, 640x352 [SAR 1:1 DAR 20:11], 25 tbr, 25 tbn, 25 tbc
  18.     Stream #0:1: Audio: mp3 (U[0][0][0] / 0x0055), 48000 Hz, stereo, s16p, 129 kb/s
  19. Output #0, avi, to 'output.avi':
  20.   Metadata:
  21.     ISFT            : Lavf55.18.102
  22.     Stream #0:0: Video: mpeg4 (FMP4 / 0x34504D46), yuv420p, 640x352 [SAR 1:1 DAR 20:11], q=2-31, 200 kb/s, 25 tbn, 25 tbc
  23.     Stream #0:1: Audio: mp3 (libmp3lame) (U[0][0][0] / 0x0055), 48000 Hz, stereo, s16p
  24. Stream mapping:
  25.   Stream #0:0 -> #0:0 (mpeg4 -> mpeg4)
  26.   Stream #0:1 -> #0:1 (mp3 -> libmp3lame)
  27. Press [q] to stop, [?] for help
  28. [mpeg4 @ 0x7fbafd023800] Video uses a non-standard and wasteful way to store B-frames ('packed B-frames'). Consider using a tool like VirtualDub or avidemux to fix it.
  29. frame=  499 fps=0.0 q=19.2 Lsize=    1134kB time=00:00:20.01 bitrate= 464.2kbits/s   
  30. video:780kB audio:313kB subtitle:0 global headers:0kB muxing overhead 3.783595%
  31. [StevenLiu@liudeMacBook-Pro Movies]$

复制代码



本帖子中包含更多资源

您需要 登录 才可以下载或查看,没有帐号?立即注册

x
回复 支持 反对

使用道具 举报

发表于 2013-10-26 16:12:52 | 显示全部楼层
效率太高了啊
回复 支持 反对

使用道具 举报

发表于 2016-12-7 17:58:32 | 显示全部楼层

大师兄,群是多少啊
回复 支持 反对

使用道具 举报

您需要登录后才可以回帖 登录 | 立即注册

本版积分规则

手机版|Archiver|ChinaFFmpeg

GMT+8, 2022-9-26 12:00 , Processed in 0.048016 second(s), 15 queries .

Powered by Discuz! X3.4

Copyright © 2001-2021, Tencent Cloud.

快速回复 返回顶部 返回列表